[ create a new paste ] login | about

Link: http://codepad.org/HwScrghI    [ raw code | fork ]

Plain Text, pasted on Dec 11:
Exact Audio Copy V1.0 beta 3 from 29. August 2011

EAC extraction logfile from 6. December 2013, 19:17

The Platters / A Special Christmas Collection

Used drive  : SAMSUNG DVD-ROM SD-616E   Adapter: 3  ID: 0

Read mode               : Secure
Utilize accurate stream : Yes
Defeat audio cache      : Yes
Make use of C2 pointers : No

Read offset correction                      : 12
Overread into Lead-In and Lead-Out          : No
Fill up missing offset samples with silence : Yes
Delete leading and trailing silent blocks   : No
Null samples used in CRC calculations       : Yes
Used interface                              : Native Win32 interface for Win NT & 2000

Used output format              : User Defined Encoder
Selected bitrate                : 768 kBit/s
Quality                         : High
Add ID3 tag                     : No
Command line compressor         : C:\Program Files\Exact Audio Copy\FLAC\FLAC.EXE
Additional command line options : -6 -V -T "ARTIST=%artist%" -T "TITLE=%title%" -T "ALBUM=%albumtitle%" -T "DATE=%year%" -T "TRACKNUMBER=%tracknr%" -T "GENRE=%genre%" -T "COMMENT=%comment%" -T "BAND=%albuminterpret%" -T "ALBUMARTIST=%albuminterpret%" -T "COMPOSER=%composer%" %haslyrics%--tag-from-file=LYRICS="%lyricsfile%"%haslyrics% -T "DISCNUMBER=%cdnumber%" -T "TOTALDISCS=%totalcds%" -T "TOTALTRACKS=%numtracks%" %hascover%--picture="%coverfile%"%hascover% %source% -o %dest%


TOC of the extracted CD

     Track |   Start  |  Length  | Start sector | End sector 
    ---------------------------------------------------------
        1  |  0:00.32 |  2:34.55 |        32    |    11636   
        2  |  2:35.12 |  2:08.13 |     11637    |    21249   
        3  |  4:43.25 |  2:54.32 |     21250    |    34331   
        4  |  7:37.57 |  3:00.48 |     34332    |    47879   
        5  | 10:38.30 |  1:55.57 |     47880    |    56561   
        6  | 12:34.12 |  2:43.63 |     56562    |    68849   
        7  | 15:18.00 |  2:21.42 |     68850    |    79466   
        8  | 17:39.42 |  2:08.55 |     79467    |    89121   
        9  | 19:48.22 |  3:23.30 |     89122    |   104376   
       10  | 23:11.52 |  1:53.20 |    104377    |   112871   
       11  | 25:04.72 |  2:53.28 |    112872    |   125874   
       12  | 27:58.25 |  2:34.72 |    125875    |   137496   


Range status and errors

Selected range

     Filename C:\Documents and Settings\Borya\Desktop\platchris\The Platters - A Special Christmas Collection.wav

     Peak level 100.0 %
     Extraction speed 2.6 X
     Range quality 99.9 %
     Test CRC BAC814AB
     Copy CRC BAC814AB
     Copy OK

No errors occurred

 
AccurateRip summary
 
Track  1  cannot be verified as accurate (confidence 2)  [24A978FD], AccurateRip returned [7EF601AF]  (AR v2)
Track  2  cannot be verified as accurate (confidence 2)  [EF645D45], AccurateRip returned [6D4CEECB]  (AR v2)
Track  3  cannot be verified as accurate (confidence 2)  [09525376], AccurateRip returned [047DE01B]  (AR v2)
Track  4  cannot be verified as accurate (confidence 2)  [854F50B0], AccurateRip returned [2592273A]  (AR v2)
Track  5  cannot be verified as accurate (confidence 2)  [6954AEE8], AccurateRip returned [2D87A3A6]  (AR v2)
Track  6  cannot be verified as accurate (confidence 2)  [D34BFA4A], AccurateRip returned [FADA1919]  (AR v2)
Track  7  cannot be verified as accurate (confidence 2)  [DD65F339], AccurateRip returned [5815414E]  (AR v2)
Track  8  cannot be verified as accurate (confidence 2)  [D2E0A578], AccurateRip returned [117799D7]  (AR v2)
Track  9  cannot be verified as accurate (confidence 2)  [21395EAD], AccurateRip returned [2F36931C]  (AR v2)
Track 10  cannot be verified as accurate (confidence 2)  [3A4656F1], AccurateRip returned [05F5A91C]  (AR v2)
Track 11  cannot be verified as accurate (confidence 2)  [C3666410], AccurateRip returned [F1684FFA]  (AR v2)
Track 12  cannot be verified as accurate (confidence 2)  [B9DABB9D], AccurateRip returned [4A3CCDB6]  (AR v2)
 
No tracks could be verified as accurate
You may have a different pressing from the one(s) in the database

End of status report

==== Log checksum CFCBD96A601778168739CCC18B134A64223A87C421744297FC82BE38D96F2841 ====



Create a new paste based on this one


Comments: