[ create a new paste ] login | about

Link: http://codepad.org/Hwusjrj8    [ raw code | fork ]

Plain Text, pasted on Jul 20:
[CUETools log; Date: 7/20/2018 1:06:11 PM; Version: 2.1.5]
[CTDB TOCID: pHjqdvywpbJDC45.jMx_CqdTSNI-] found.
Track | CTDB Status
  1   | (45/45) Accurately ripped
  2   | (45/45) Accurately ripped
  3   | (45/45) Accurately ripped
  4   | (45/45) Accurately ripped
  5   | (45/45) Accurately ripped
  6   | (45/45) Accurately ripped
  7   | (45/45) Accurately ripped
  8   | (45/45) Accurately ripped
  9   | (45/45) Accurately ripped
 10   | (45/45) Accurately ripped
 11   | (45/45) Accurately ripped
 12   | (45/45) Accurately ripped
 13   | (43/45) Accurately ripped
 14   | (45/45) Accurately ripped
 15   | (44/45) Accurately ripped
[AccurateRip ID: 001d593a-0157bf2d-d00db50f] found.
Track   [  CRC   |   V2   ] Status
 01     [38f6ee6d|a3b83138] (0+1/1) Accurately ripped
 02     [47645cfc|64704cd1] (0+1/1) Accurately ripped
 03     [12cb0e47|05318207] (0+1/1) Accurately ripped
 04     [50f0ee18|e7ad6b5f] (0+1/1) Accurately ripped
 05     [858f1d62|c9f4fa69] (0+1/1) Accurately ripped
 06     [0a252be5|ef6988f0] (0+1/1) Accurately ripped
 07     [5621b7e7|fabb65cc] (0+1/1) Accurately ripped
 08     [33da2573|41c5200f] (0+1/1) Accurately ripped
 09     [4bb6acd3|40d60fd2] (0+1/1) Accurately ripped
 10     [0ce54de7|a1add6b8] (0+1/1) Accurately ripped
 11     [4700f013|2ae5aa6d] (0+1/1) Accurately ripped
 12     [80ac82da|6ca971fa] (0+1/1) Accurately ripped
 13     [840b2b28|0ba3e0fe] (0+1/1) Accurately ripped
 14     [ff8d301c|0dbea6fb] (0+1/1) Accurately ripped
 15     [1ed77aeb|7837a893] (0+1/1) Accurately ripped

Track Peak [ CRC32  ] [W/O NULL] [  LOG   ]
 --  100.0 [A2D26B72] [4DEB3177]   CRC32   
 01  100.0 [F9140D7C] [50CEA108]           
 02   99.6 [FE578D62] [BF875F6C]           
 03  100.0 [4E660A21] [0B5C4E70]           
 04   96.8 [9FCE7BCA] [C550923A]           
 05  100.0 [F08EF5EB] [532E63BE]           
 06  100.0 [DAE49587] [14FBBFCD]           
 07  100.0 [3B92C4D2] [C81EE7DD]           
 08  100.0 [5167CA6B] [C40885FD]           
 09  100.0 [D1E5DFFB] [B0009995]           
 10   96.6 [03157B6F] [0F2BEE5D]           
 11   97.8 [3B80CA40] [6C6CFA25]           
 12  100.0 [8F87966F] [349D3AEC]           
 13   97.7 [F082F156] [1486EC45]           
 14  100.0 [FC8A29BC] [D9472BFE]           
 15  100.0 [836BF4B5] [070A1314]           



Create a new paste based on this one


Comments: