[ create a new paste ] login | about

Link: http://codepad.org/HyX7CaUr    [ raw code | fork ]

Plain Text, pasted on Jun 21:
[CUETools log; Date: 6/21/2016 1:33:25 PM; Version: 2.1.5]
Pregap length 00:00:32.
[CTDB TOCID: lUyeEW.pzLBBOUdvoDQaWYLxeQQ-] found.
Track | CTDB Status
  1   | (825/859) Accurately ripped
  2   | (823/859) Accurately ripped
  3   | (819/859) Accurately ripped
  4   | (816/859) Accurately ripped
  5   | (821/859) Accurately ripped
  6   | (817/859) Accurately ripped
  7   | (820/859) Accurately ripped
  8   | (819/859) Accurately ripped
  9   | (820/859) Accurately ripped
 10   | (815/859) Accurately ripped
 11   | (815/859) Accurately ripped
 12   | (820/859) Accurately ripped
 13   | (819/859) Accurately ripped
 14   | (820/859) Accurately ripped
 15   | (817/859) Accurately ripped
 16   | (823/859) Accurately ripped
[AccurateRip ID: 0018f9fd-012dc92b-c609bf10] found.
Track   [  CRC   |   V2   ] Status
 01     [88b46b30|adc8ce95] (200+200/881) Accurately ripped
 02     [d4d670af|084e0945] (200+200/880) Accurately ripped
 03     [1650ae88|ea0211ca] (200+200/881) Accurately ripped
 04     [cd6da71b|6c4e561a] (200+200/880) Accurately ripped
 05     [f8da4531|4aa5e913] (200+200/877) Accurately ripped
 06     [b60b4201|ba6eee06] (200+200/880) Accurately ripped
 07     [f4fabe5c|338b9a05] (200+200/884) Accurately ripped
 08     [949d47a7|965d9040] (200+200/880) Accurately ripped
 09     [780d8f8d|e983ee46] (200+200/882) Accurately ripped
 10     [04d226a4|16ecd3b9] (200+200/882) Accurately ripped
 11     [ee02e76d|3538eef8] (200+200/872) Accurately ripped
 12     [9d6e94da|e9970f81] (200+200/875) Accurately ripped
 13     [292625b6|b22b2508] (200+200/873) Accurately ripped
 14     [4a8e7848|f3000852] (200+200/875) Accurately ripped
 15     [67191f90|cff4cff7] (200+200/877) Accurately ripped
 16     [159c5f3c|a47e8450] (200+200/867) Accurately ripped
Offsetted by -1565:
 01     [ae7d671f] (002/881) Accurately ripped
 02     [672b18cb] (002/880) Accurately ripped
 03     [8c5f2fd1] (002/881) Accurately ripped
 04     [b58a4160] (002/880) Accurately ripped
 05     [ef5b45a2] (002/877) Accurately ripped
 06     [8485d74f] (002/880) Accurately ripped
 07     [999827be] (002/884) Accurately ripped
 08     [dca5007d] (002/880) Accurately ripped
 09     [617605fc] (002/882) Accurately ripped
 10     [63f1987c] (002/882) Accurately ripped
 11     [9eab53b0] (002/872) Accurately ripped
 12     [01360e6e] (002/875) Accurately ripped
 13     [d6d62cc8] (002/873) Accurately ripped
 14     [7d68e558] (002/875) Accurately ripped
 15     [25bd9b09] (002/877) Accurately ripped
 16     [879d76fd] (002/867) Accurately ripped
Offsetted by -1559:
 01     [f01a7c3d] (076/881) Accurately ripped
 02     [d0476603] (076/880) Accurately ripped
 03     [00b6cf23] (074/881) Accurately ripped
 04     [f34cf7aa] (075/880) Accurately ripped
 05     [12e3b144] (075/877) Accurately ripped
 06     [5c78f06b] (076/880) Accurately ripped
 07     [cf993002] (076/884) Accurately ripped
 08     [1c7db6a9] (076/880) Accurately ripped
 09     [1164f01a] (076/882) Accurately ripped
 10     [f86f6e2c] (077/882) Accurately ripped
 11     [09ca4076] (074/872) Accurately ripped
 12     [2d526896] (076/875) Accurately ripped
 13     [d601d46c] (076/873) Accurately ripped
 14     [9a54eb78] (075/875) Accurately ripped
 15     [e26ef2bb] (074/877) Accurately ripped
 16     [a2e7721c] (072/867) Accurately ripped
Offsetted by 861:
 01     [5041c181] (184/881) Accurately ripped
 02     [c033b993] (182/880) Accurately ripped
 03     [4d6e7cff] (184/881) Accurately ripped
 04     [ec12d596] (184/880) Accurately ripped
 05     [63d29a80] (180/877) Accurately ripped
 06     [42cfd533] (182/880) Accurately ripped
 07     [3a8ee07a] (186/884) Accurately ripped
 08     [5e976551] (183/880) Accurately ripped
 09     [9679cb5e] (182/882) Accurately ripped
 10     [415b6ecc] (184/882) Accurately ripped
 11     [79d8a06a] (179/872) Accurately ripped
 12     [57531e46] (181/875) Accurately ripped
 13     [321e9e24] (179/873) Accurately ripped
 14     [80dbe738] (181/875) Accurately ripped
 15     [2c81c7d7] (182/877) Accurately ripped
 16     [abdda7c8] (179/867) Accurately ripped
Offsetted by -878:
 01     [073f590a] (000/881) No match (V2 was not tested)
 02     [6a53a257] (000/880) No match (V2 was not tested)
 03     [958ff1fe] (000/881) No match (V2 was not tested)
 04     [d520c979] (000/880) No match (V2 was not tested)
 05     [53df6997] (000/877) No match (V2 was not tested)
 06     [9ac09255] (000/880) No match (V2 was not tested)
 07     [c10e5a28] (000/884) No match (V2 was not tested)
 08     [6b127b2b] (000/880) No match (V2 was not tested)
 09     [91d1bc67] (000/882) No match (V2 was not tested)
 10     [ce39abb4] (000/882) No match (V2 was not tested)
 11     [08003a3f] (000/872) No match (V2 was not tested)
 12     [bbe46152] (000/875) No match (V2 was not tested)
 13     [f7dca7a2] (000/873) No match (V2 was not tested)
 14     [6cf9a2a8] (000/875) No match (V2 was not tested)
 15     [8b0f5426] (000/877) No match (V2 was not tested)
 16     [2759edf6] (000/867) No match (V2 was not tested)
Offsetted by -98:
 01     [59041246] (000/881) No match (V2 was not tested)
 02     [cab2d8c7] (000/880) No match (V2 was not tested)
 03     [aa0ed9a2] (000/881) No match (V2 was not tested)
 04     [32015b0d] (000/880) No match (V2 was not tested)
 05     [5f2611db] (000/877) No match (V2 was not tested)
 06     [4433528d] (000/880) No match (V2 was not tested)
 07     [2d948cb0] (000/884) No match (V2 was not tested)
 08     [d71efd83] (000/880) No match (V2 was not tested)
 09     [e9249fa3] (000/882) No match (V2 was not tested)
 10     [36202f14] (000/882) No match (V2 was not tested)
 11     [6db476cb] (000/872) No match (V2 was not tested)
 12     [224a29a2] (000/875) No match (V2 was not tested)
 13     [8c07c8ea] (000/873) No match (V2 was not tested)
 14     [1cd4bee8] (000/875) No match (V2 was not tested)
 15     [5d1ddc8a] (000/877) No match (V2 was not tested)
 16     [ae7e9eb3] (000/867) No match (V2 was not tested)
Offsetted by 202:
 01     [29b23222] (002/881) Accurately ripped
 02     [5239edb7] (002/880) Accurately ripped
 03     [632bf7a6] (002/881) Accurately ripped
 04     [4208f581] (000/880) No match (V2 was not tested)
 05     [4fcb177f] (002/877) Accurately ripped
 06     [71ae3a05] (002/880) Accurately ripped
 07     [b9c829f8] (000/884) No match (V2 was not tested)
 08     [4f72921b] (002/880) Accurately ripped
 09     [45ce597f] (002/882) Accurately ripped
 10     [36b3eb74] (000/882) No match (V2 was not tested)
 11     [59beb577] (002/872) Accurately ripped
 12     [bfd3c572] (002/875) Accurately ripped
 13     [628e86f2] (002/873) Accurately ripped
 14     [c2edf128] (002/875) Accurately ripped
 15     [37c0fd4e] (000/877) No match (V2 was not tested)
 16     [e7663283] (002/867) Accurately ripped

Track Peak [ CRC32  ] [W/O NULL] [  LOG   ]
 --   97.7 [F1AB24EB] [C4955410]   CRC32   
 01   97.7 [9832C09F] [7CE756BB]           
 02   54.4 [0CA4C473] [0C375198]           
 03   97.7 [0A9FB9B2] [31E4C202]           
 04   97.5 [050A1DB4] [52A7DE9D]           
 05   83.8 [CE213473] [C3A78877]           
 06   80.5 [A3B3B6C4] [0A521BAB]           
 07   95.1 [DD1C5B3E] [9E15EE14]           
 08   97.7 [C85853C2] [4785B09E]           
 09   97.7 [654C06C2] [F4EAC3D6]           
 10   74.2 [6D759166] [2DB3F62D]           
 11   62.9 [D4599A2C] [A851E789]           
 12   97.2 [B18CD929] [E0182480]           
 13   82.1 [2E068372] [BC352A7F]           
 14   47.7 [CDB0B074] [22294CE8]           
 15   97.7 [E6A0405B] [73F27A24]           
 16   94.8 [8DD037B8] [5E07F186]           



Create a new paste based on this one


Comments: