[ create a new paste ] login | about

Link: http://codepad.org/HzE3a5eL    [ raw code | fork ]

Plain Text, pasted on Aug 27:
Exact Audio Copy V0.99 prebeta 4 from 23. January 2008

EAC extraction logfile from 10. March 2011, 14:11

Lalo Schifrin / Dirty Harry

Used drive  : Optiarc DVD RW AD-7241S   Adapter: 1  ID: 1

Read mode               : Secure
Utilize accurate stream : Yes
Defeat audio cache      : Yes
Make use of C2 pointers : No

Read offset correction                      : 48
Overread into Lead-In and Lead-Out          : No
Fill up missing offset samples with silence : Yes
Delete leading and trailing silent blocks   : No
Null samples used in CRC calculations       : Yes
Used interface                              : Installed external ASPI interface
Gap handling                                : Appended to previous track

Used output format              : User Defined Encoder
Selected bitrate                : 1024 kBit/s
Quality                         : High
Add ID3 tag                     : No
Command line compressor         : C:\Program Files\Exact Audio Copy\Flac\flac.exe
Additional command line options : -8 -V -T "ARTIST=%a" -T "TITLE=%t" -T "ALBUM=%g" -T "DATE=%y" -T "TRACKNUMBER=%n" -T "GENRE=%m" -T "COMMENT=EAC FLAC -8" %s


TOC of the extracted CD

     Track |   Start  |  Length  | Start sector | End sector 
    ---------------------------------------------------------
        1  |  0:00.00 |  1:29.41 |         0    |     6715   
        2  |  1:29.41 |  3:30.41 |      6716    |    22506   
        3  |  5:00.07 |  1:58.60 |     22507    |    31416   
        4  |  6:58.67 |  2:45.67 |     31417    |    43858   
        5  |  9:44.59 |  2:37.49 |     43859    |    55682   
        6  | 12:22.33 |  2:56.64 |     55683    |    68946   
        7  | 15:19.22 |  3:32.41 |     68947    |    84887   
        8  | 18:51.63 |  0:48.06 |     84888    |    88493   
        9  | 19:39.69 |  1:46.64 |     88494    |    96507   
       10  | 21:26.58 |  0:58.43 |     96508    |   100900   
       11  | 22:25.26 |  1:34.22 |    100901    |   107972   
       12  | 23:59.48 |  1:01.60 |    107973    |   112607   
       13  | 25:01.33 |  3:18.05 |    112608    |   127462   
       14  | 28:19.38 |  1:45.20 |    127463    |   135357   
       15  | 30:04.58 |  1:20.07 |    135358    |   141364   
       16  | 31:24.65 |  1:20.26 |    141365    |   147390   
       17  | 32:45.16 |  2:06.08 |    147391    |   156848   
       18  | 34:51.24 |  1:27.65 |    156849    |   163438   
       19  | 36:19.14 |  1:35.25 |    163439    |   170588   
       20  | 37:54.39 |  1:22.29 |    170589    |   176767   
       21  | 39:16.68 |  2:06.19 |    176768    |   186236   
       22  | 41:23.12 |  1:41.63 |    186237    |   193874   


Track  1

     Filename F:\torrent\Dirty Harry_Lalo Schifrin\score\01. Lalo Schifrin – Prologue - The Swimming Pool.wav

     Pre-gap length  0:00:02.00

     Peak level 97.2 %
     Track quality 100.0 %
     Test CRC F4614F6A
     Copy CRC F4614F6A
     Accurately ripped (confidence 9)  [DF04C210]
     Copy OK

Track  2

     Filename F:\torrent\Dirty Harry_Lalo Schifrin\score\02. Lalo Schifrin – Main Title.wav

     Peak level 80.3 %
     Track quality 100.0 %
     Test CRC 35B9E34F
     Copy CRC 35B9E34F
     Accurately ripped (confidence 10)  [2BB1C8FD]
     Copy OK

Track  3

     Filename F:\torrent\Dirty Harry_Lalo Schifrin\score\03. Lalo Schifrin – Harry's Hot Dog.wav

     Pre-gap length  0:00:01.53

     Peak level 91.3 %
     Track quality 100.0 %
     Test CRC 800F94C6
     Copy CRC 800F94C6
     Accurately ripped (confidence 10)  [2FE42F74]
     Copy OK

Track  4

     Filename F:\torrent\Dirty Harry_Lalo Schifrin\score\04. Lalo Schifrin – No More Lies, Girl.wav

     Peak level 75.0 %
     Track quality 100.0 %
     Test CRC 9731489B
     Copy CRC 9731489B
     Accurately ripped (confidence 10)  [F923D495]
     Copy OK

Track  5

     Filename F:\torrent\Dirty Harry_Lalo Schifrin\score\05. Lalo Schifrin – Scorpio's View.wav

     Pre-gap length  0:00:01.92

     Peak level 97.2 %
     Track quality 100.0 %
     Test CRC 99C03AA1
     Copy CRC 99C03AA1
     Accurately ripped (confidence 10)  [D6E9AA11]
     Copy OK

Track  6

     Filename F:\torrent\Dirty Harry_Lalo Schifrin\score\06. Lalo Schifrin – Red Light District.wav

     Pre-gap length  0:00:02.04

     Peak level 96.9 %
     Track quality 100.0 %
     Test CRC 7F3862C4
     Copy CRC 7F3862C4
     Accurately ripped (confidence 10)  [D9F4CDD8]
     Copy OK

Track  7

     Filename F:\torrent\Dirty Harry_Lalo Schifrin\score\07. Lalo Schifrin – Scorpio Takes the Bate.wav

     Peak level 93.6 %
     Track quality 100.0 %
     Test CRC 8C7AA9F6
     Copy CRC 8C7AA9F6
     Accurately ripped (confidence 10)  [145E7976]
     Copy OK

Track  8

     Filename F:\torrent\Dirty Harry_Lalo Schifrin\score\08. Lalo Schifrin – The Cross.wav

     Pre-gap length  0:00:01.61

     Peak level 62.6 %
     Track quality 100.0 %
     Test CRC EAE27F63
     Copy CRC EAE27F63
     Accurately ripped (confidence 10)  [C4D89537]
     Copy OK

Track  9

     Filename F:\torrent\Dirty Harry_Lalo Schifrin\score\09. Lalo Schifrin – Goodbye, Callahan.wav

     Peak level 97.2 %
     Track quality 100.0 %
     Test CRC 951F7FE0
     Copy CRC 951F7FE0
     Accurately ripped (confidence 10)  [A17B3976]
     Copy OK

Track 10

     Filename F:\torrent\Dirty Harry_Lalo Schifrin\score\10. Lalo Schifrin – The Stadium Grounds.wav

     Peak level 70.4 %
     Track quality 100.0 %
     Test CRC A57227A0
     Copy CRC A57227A0
     Accurately ripped (confidence 10)  [047C1025]
     Copy OK

Track 11

     Filename F:\torrent\Dirty Harry_Lalo Schifrin\score\11. Lalo Schifrin – Floodlights.wav

     Peak level 73.6 %
     Track quality 99.8 %
     Test CRC 8C786894
     Copy CRC 8C786894
     Accurately ripped (confidence 10)  [011941D8]
     Copy OK

Track 12

     Filename F:\torrent\Dirty Harry_Lalo Schifrin\score\12. Lalo Schifrin – Dawn Discovery.wav

     Peak level 39.7 %
     Track quality 100.0 %
     Test CRC 75AEEC9D
     Copy CRC 75AEEC9D
     Accurately ripped (confidence 9)  [B4FD20CD]
     Copy OK

Track 13

     Filename F:\torrent\Dirty Harry_Lalo Schifrin\score\13. Lalo Schifrin – Off Duty.wav

     Peak level 85.8 %
     Track quality 100.0 %
     Test CRC FA836A43
     Copy CRC FA836A43
     Accurately ripped (confidence 10)  [24B4921F]
     Copy OK

Track 14

     Filename F:\torrent\Dirty Harry_Lalo Schifrin\score\14. Lalo Schifrin – The Strip Club.wav

     Pre-gap length  0:00:02.12

     Peak level 96.9 %
     Track quality 99.8 %
     Test CRC 9C1E583F
     Copy CRC 9C1E583F
     Accurately ripped (confidence 10)  [65CA2871]
     Copy OK

Track 15

     Filename F:\torrent\Dirty Harry_Lalo Schifrin\score\15. Lalo Schifrin – Liquor Store Holdup.wav

     Pre-gap length  0:00:01.08

     Peak level 96.5 %
     Track quality 100.0 %
     Test CRC 1D22AD43
     Copy CRC 1D22AD43
     Accurately ripped (confidence 10)  [22171C96]
     Copy OK

Track 16

     Filename F:\torrent\Dirty Harry_Lalo Schifrin\score\16. Lalo Schifrin – City Hall.wav

     Peak level 53.5 %
     Track quality 99.8 %
     Test CRC 2C2935C4
     Copy CRC 2C2935C4
     Accurately ripped (confidence 10)  [52DB9B74]
     Copy OK

Track 17

     Filename F:\torrent\Dirty Harry_Lalo Schifrin\score\17. Lalo Schifrin – The School Bus.wav

     Pre-gap length  0:00:01.12

     Peak level 97.2 %
     Track quality 100.0 %
     Test CRC F9857062
     Copy CRC F9857062
     Accurately ripped (confidence 10)  [ACD081C9]
     Copy OK

Track 18

     Filename F:\torrent\Dirty Harry_Lalo Schifrin\score\18. Lalo Schifrin – End Titles.wav

     Pre-gap length  0:00:03.08

     Peak level 40.0 %
     Track quality 100.0 %
     Test CRC AC37516C
     Copy CRC AC37516C
     Accurately ripped (confidence 10)  [825158C4]
     Copy OK

Track 19

     Filename F:\torrent\Dirty Harry_Lalo Schifrin\score\19. Lalo Schifrin – Floodlights [Take 1].wav

     Pre-gap length  0:00:09.73

     Peak level 76.2 %
     Track quality 100.0 %
     Test CRC 650A4771
     Copy CRC 650A4771
     Accurately ripped (confidence 10)  [77E8BE87]
     Copy OK

Track 20

     Filename F:\torrent\Dirty Harry_Lalo Schifrin\score\20. Lalo Schifrin – City Hall [Alternate].wav

     Pre-gap length  0:00:01.97

     Peak level 43.2 %
     Track quality 100.0 %
     Test CRC 668F1BF4
     Copy CRC 668F1BF4
     Accurately ripped (confidence 10)  [817039E9]
     Copy OK

Track 21

     Filename F:\torrent\Dirty Harry_Lalo Schifrin\score\21. Lalo Schifrin – The School Bus [Alternate].wav

     Peak level 97.2 %
     Track quality 100.0 %
     Test CRC 3781439B
     Copy CRC 3781439B
     Accurately ripped (confidence 10)  [F4923AB2]
     Copy OK

Track 22

     Filename F:\torrent\Dirty Harry_Lalo Schifrin\score\22. Lalo Schifrin – The Swimming Pool [Original Version] - Scorpion's View [Parts 2 and 3 - Alternate Vocal Take].wav

     Peak level 97.2 %
     Track quality 100.0 %
     Test CRC AE014B5E
     Copy CRC AE014B5E
     Accurately ripped (confidence 9)  [A3A108E3]
     Copy OK


All tracks accurately ripped

No errors occurred

End of status report



Create a new paste based on this one


Comments: