[ create a new paste ] login | about

Link: http://codepad.org/I1B0DqCr    [ raw code | fork ]

Plain Text, pasted on Apr 6:
Exact Audio Copy V1.1 from 23. June 2015

EAC extraction logfile from 14. March 2017, 17:37

Various Artists / Grand 12-Inches Vol.15

Used drive  : HL-DT-STDVDRAM GH24NS90   Adapter: 1  ID: 0

Read mode               : Secure
Utilize accurate stream : Yes
Defeat audio cache      : Yes
Make use of C2 pointers : No

Read offset correction                      : 6
Overread into Lead-In and Lead-Out          : No
Fill up missing offset samples with silence : Yes
Delete leading and trailing silent blocks   : No
Null samples used in CRC calculations       : Yes
Used interface                              : Native Win32 interface for Win NT & 2000
Gap handling                                : Appended to previous track

Used output format              : User Defined Encoder
Selected bitrate                : 1024 kBit/s
Quality                         : High
Add ID3 tag                     : No
Command line compressor         : C:\Program Files (x86)\Exact Audio Copy\Flac\flac.exe
Additional command line options : -8 -e -V -T "ARTIST=%artist%" -T "TITLE=%title%" -T "ALBUM=%albumtitle%" -T "DATE=%year%" -T "TRACKNUMBER=%tracknr%" -T "GENRE=%genre%" -T "PERFORMER=%albuminterpret%" -T "COMPOSER=%composer%" %haslyrics%--tag-from-file=LYRICS="%lyricsfile%"%haslyrics% -T "ALBUMARTIST=%albumartist%" -T "DISCNUMBER=%cdnumber%" -T "TOTALDISCS=%totalcds%" -T "TOTALTRACKS=%numtracks%" -T "COMMENT=%comment%" %source% -o %dest%


TOC of the extracted CD

     Track |   Start  |  Length  | Start sector | End sector 
    ---------------------------------------------------------
        1  |  0:00.00 |  7:57.72 |         0    |    35846   
        2  |  7:57.72 | 15:11.73 |     35847    |   104244   
        3  | 23:09.70 |  7:24.37 |    104245    |   137581   
        4  | 30:34.32 |  7:25.70 |    137582    |   171026   
        5  | 38:00.27 |  6:28.73 |    171027    |   200199   
        6  | 44:29.25 |  5:50.01 |    200200    |   226450   
        7  | 50:19.26 |  6:06.24 |    226451    |   253924   
        8  | 56:25.50 |  5:48.07 |    253925    |   280031   
        9  | 62:13.57 |  5:26.67 |    280032    |   304548   
       10  | 67:40.49 |  6:33.50 |    304549    |   334073   


Track  1

     Filename D:\Mijn Documenten\Bureaublad\Grand 12 inches 15 (flac)\cd1\01 - Billy Ocean - European Queen (No More Love On The Run) (12'' Special Mix).wav

     Pre-gap length  0:00:02.00

     Peak level 98.8 %
     Extraction speed 1.3 X
     Track quality 100.0 %
     Test CRC 6CADECC7
     Copy CRC 6CADECC7
     Accurately ripped (confidence 3)  [44102938]  (AR v2)
     Copy OK

Track  2

     Filename D:\Mijn Documenten\Bureaublad\Grand 12 inches 15 (flac)\cd1\02 - Boys Town Gang - Remember Me-Ain't No Mountain High Enough Suite (12'' Remix).wav

     Pre-gap length  0:00:02.00

     Peak level 98.8 %
     Extraction speed 1.6 X
     Track quality 99.9 %
     Test CRC 65B021CD
     Copy CRC 65B021CD
     Accurately ripped (confidence 3)  [451EC77F]  (AR v2)
     Copy OK

Track  3

     Filename D:\Mijn Documenten\Bureaublad\Grand 12 inches 15 (flac)\cd1\03 - Spinners - The Rubberband Man (Album Version).wav

     Pre-gap length  0:00:02.00

     Peak level 98.8 %
     Extraction speed 1.9 X
     Track quality 100.0 %
     Test CRC FCEFF85E
     Copy CRC FCEFF85E
     Accurately ripped (confidence 3)  [EDBD814C]  (AR v2)
     Copy OK

Track  4

     Filename D:\Mijn Documenten\Bureaublad\Grand 12 inches 15 (flac)\cd1\04 - Donna Summer - This Time I Know It's For Real (Extended Version).wav

     Pre-gap length  0:00:02.00

     Peak level 100.0 %
     Extraction speed 2.0 X
     Track quality 100.0 %
     Test CRC 1A54BA3D
     Copy CRC 1A54BA3D
     Accurately ripped (confidence 3)  [C4116E4E]  (AR v2)
     Copy OK

Track  5

     Filename D:\Mijn Documenten\Bureaublad\Grand 12 inches 15 (flac)\cd1\05 - Bar-Kays - Sexomatic (Full Lenght Version).wav

     Pre-gap length  0:00:02.00

     Peak level 98.8 %
     Extraction speed 2.1 X
     Track quality 100.0 %
     Test CRC 766DC2AD
     Copy CRC 766DC2AD
     Accurately ripped (confidence 3)  [5900DDC4]  (AR v2)
     Copy OK

Track  6

     Filename D:\Mijn Documenten\Bureaublad\Grand 12 inches 15 (flac)\cd1\06 - Rose Royce - Is It Love You're After (Extended Version).wav

     Pre-gap length  0:00:02.00

     Peak level 98.8 %
     Extraction speed 2.3 X
     Track quality 100.0 %
     Test CRC AF97C3A1
     Copy CRC AF97C3A1
     Accurately ripped (confidence 3)  [15FB46BD]  (AR v2)
     Copy OK

Track  7

     Filename D:\Mijn Documenten\Bureaublad\Grand 12 inches 15 (flac)\cd1\07 - Con Funk Shun - Ffun (12'' Version).wav

     Pre-gap length  0:00:02.00

     Peak level 98.8 %
     Extraction speed 2.4 X
     Track quality 100.0 %
     Test CRC 0152D418
     Copy CRC 0152D418
     Accurately ripped (confidence 3)  [A1242507]  (AR v2)
     Copy OK

Track  8

     Filename D:\Mijn Documenten\Bureaublad\Grand 12 inches 15 (flac)\cd1\08 - High Fashion - Feelin' Lucky Lately (Album Version).wav

     Pre-gap length  0:00:02.00

     Peak level 98.8 %
     Extraction speed 2.4 X
     Track quality 100.0 %
     Test CRC B370FF40
     Copy CRC B370FF40
     Accurately ripped (confidence 3)  [44E272A5]  (AR v2)
     Copy OK

Track  9

     Filename D:\Mijn Documenten\Bureaublad\Grand 12 inches 15 (flac)\cd1\09 - Peter Brown - Overnight Sensation (12'' Vocal).wav

     Pre-gap length  0:00:02.00

     Peak level 98.8 %
     Extraction speed 2.5 X
     Track quality 100.0 %
     Test CRC FC779F9C
     Copy CRC FC779F9C
     Accurately ripped (confidence 3)  [4F971005]  (AR v2)
     Copy OK

Track 10

     Filename D:\Mijn Documenten\Bureaublad\Grand 12 inches 15 (flac)\cd1\10 - Fantasy - You're Too Late (12'' Special Disco Version).wav

     Pre-gap length  0:00:02.00

     Peak level 98.8 %
     Extraction speed 2.6 X
     Track quality 100.0 %
     Test CRC 214FF2D1
     Copy CRC 214FF2D1
     Accurately ripped (confidence 3)  [4C139D14]  (AR v2)
     Copy OK


All tracks accurately ripped

No errors occurred

End of status report

---- CUETools DB Plugin V2.1.6

[CTDB TOCID: 0SbP6T4kYqun5rjMAg0zbA2ZmT4-] found
Submit result: 0SbP6T4kYqun5rjMAg0zbA2ZmT4- has been confirmed
Track | CTDB Status
  1   | (9/9) Accurately ripped
  2   | (9/9) Accurately ripped
  3   | (9/9) Accurately ripped
  4   | (9/9) Accurately ripped
  5   | (9/9) Accurately ripped
  6   | (9/9) Accurately ripped
  7   | (9/9) Accurately ripped
  8   | (9/9) Accurately ripped
  9   | (9/9) Accurately ripped
 10   | (9/9) Accurately ripped


==== Log checksum 56D644317510669C8A2826044F10F512EDA7178A2E8FAB3310EC0FFF788C5E07 ====



Create a new paste based on this one


Comments: