[ create a new paste ] login | about

Link: http://codepad.org/IEhCqcXo    [ raw code | fork ]

Plain Text, pasted on May 5:
foobar2000 1.3.17 / Dynamic Range Meter 1.1.1
log date: 2018-05-05 13:56:33

--------------------------------------------------------------------------------
Analyzed: Art Garfunkel / Angel Clair
--------------------------------------------------------------------------------

DR         Peak         RMS     Duration Track
--------------------------------------------------------------------------------
DR11      -0.41 dB   -14.16 dB      5:03 01-Traveling Boy  
DR10      -2.56 dB   -15.21 dB      4:04 02-Down in the Willow Garden  
DR13      -0.52 dB   -15.65 dB      3:40 03-I Shall Sing  
DR10      -2.06 dB   -16.61 dB      3:27 04-Old Man  
DR11      -1.49 dB   -15.62 dB      3:12 05-Feuilles Oh  Do Space Men Pass
DR10      -1.92 dB   -15.26 dB      3:52 06-All I Know  
DR11      -1.64 dB   -14.40 dB      3:26 07-Mary Was an Only Child  
DR10      -2.11 dB   -14.64 dB      3:26 08-Woyaya 
DR10      -2.95 dB   -16.35 dB      5:29 09-Barbara Allen  
DR11      -2.54 dB   -17.24 dB      3:34 10-Another Lullaby  
--------------------------------------------------------------------------------

Number of tracks:  10
Official DR value: DR11

Samplerate:        88200 Hz
Channels:          2
Bits per sample:   24
Bitrate:           2534 kbps
Codec:             FLAC
================================================================================




Create a new paste based on this one


Comments: