[ create a new paste ] login | about

Link: http://codepad.org/IGeb9DFi    [ raw code | fork ]

Plain Text, pasted on Jul 23:
foobar2000 1.3.17 / Dynamic Range Meter 1.1.1
log date: 2018-07-23 13:40:00

--------------------------------------------------------------------------------
Analyzed: The Band / Northern Lights - Southern Cross
--------------------------------------------------------------------------------

DR         Peak         RMS     Duration Track
--------------------------------------------------------------------------------
DR14      -8.24 dB   -24.05 dB      5:59 01-Forbidden Fruit
DR14      -7.07 dB   -24.61 dB      4:15 02-Hobo Jungle
DR15      -5.71 dB   -23.30 dB      3:32 03-Ophelia
DR14      -7.85 dB   -24.77 dB      6:43 04-Acadian Driftwood
DR15      -5.96 dB   -23.21 dB      3:55 05-Ring Your Bell
DR14      -6.95 dB   -24.16 dB      6:34 06-It Makes No Difference
DR14      -8.33 dB   -24.33 dB      5:21 07-Jupiter Hollow
DR14      -6.26 dB   -22.91 dB      4:45 08-Rags And Bones
--------------------------------------------------------------------------------

Number of tracks:  8
Official DR value: DR14

Samplerate:        2822400 Hz / PCM Samplerate: 176400 Hz
Channels:          2
Bits per sample:   1
Bitrate:           5645 kbps
Codec:             DSD64
================================================================================




Create a new paste based on this one


Comments: