[ create a new paste ] login | about

Link: http://codepad.org/IKYIDpdz    [ raw code | fork ]

Plain Text, pasted on Apr 27:
foobar2000 1.3.14 / Dynamic Range Meter 1.1.1
log date: 2017-04-26 17:16:29

--------------------------------------------------------------------------------
Analyzed: THE DOORS / THE BEST OF THE DOORS
--------------------------------------------------------------------------------

DR         Peak         RMS     Duration Track
--------------------------------------------------------------------------------
DR9      -11.16 dB   -28.20 dB      6:41 01-Who Do You Love
DR9      -10.43 dB   -28.29 dB      3:32 02-Soul Kitchen
DR10     -10.39 dB   -26.21 dB      2:25 03-Hello, I Love You
DR9      -11.57 dB   -28.31 dB      2:11 04-People Are Strange
DR12      -9.71 dB   -29.71 dB      7:05 05-Riders On The Storm
DR10     -11.36 dB   -27.61 dB      3:12 06-Touch Me
DR10      -9.90 dB   -26.25 dB      3:22 07-Love Her Madly
DR10      -9.73 dB   -26.82 dB      3:16 08-Love Me Two Times
DR9      -10.67 dB   -26.65 dB      2:16 09-Take It As It Comes
DR10      -9.35 dB   -26.66 dB      3:03 10-Moonlight Drive
DR9      -10.98 dB   -27.35 dB      6:59 11-Light My Fire
--------------------------------------------------------------------------------

Number of tracks:  11
Official DR value: DR10

Samplerate:        2822400 Hz / PCM Samplerate: 88200 Hz
Channels:          5
Bits per sample:   1
Bitrate:           14112 kbps
Codec:             DST64
================================================================================

--------------------------------------------------------------------------------
Analyzed: THE DOORS / THE BEST OF THE DOORS
--------------------------------------------------------------------------------

DR         Peak         RMS     Duration Track
--------------------------------------------------------------------------------
DR10     -12.83 dB   -25.67 dB      6:24 01-Who Do You Love
DR11     -10.49 dB   -26.02 dB      3:34 02-Soul Kitchen
DR11     -11.09 dB   -26.25 dB      2:17 03-Hello, I Love You
DR10     -12.19 dB   -25.65 dB      2:13 04-People Are Strange
DR15     -10.01 dB   -29.69 dB      7:17 05-Riders On The Storm
DR12     -10.56 dB   -26.16 dB      3:13 06-Touch Me
DR13     -10.72 dB   -26.33 dB      3:22 07-Love Her Madly
DR10     -11.36 dB   -24.79 dB      3:16 08-Love Me Two Times
DR11      -9.27 dB   -23.72 dB      2:18 09-Take It As It Comes
DR10     -11.16 dB   -24.25 dB      3:04 10-Moonlight Drive
DR10     -10.24 dB   -22.62 dB      7:08 11-Light My Fire
--------------------------------------------------------------------------------

Number of tracks:  11
Official DR value: DR11

Samplerate:        2822400 Hz / PCM Samplerate: 88200 Hz
Channels:          2
Bits per sample:   1
Bitrate:           5645 kbps
Codec:             DSD64
================================================================================




Create a new paste based on this one


Comments: