[ create a new paste ] login | about

Link: http://codepad.org/ILWqbHO0    [ raw code | fork ]

Plain Text, pasted on Apr 27:
foobar2000 1.2.2 / Dynamic Range Meter 1.1.1
log date: 2013-05-29 12:38:36

--------------------------------------------------------------------------------
Analyzed: Little Richard / Here's Little Richard - Little Richard (MFSL Hybrid SACD)
--------------------------------------------------------------------------------

DR         Peak         RMS     Duration Track
--------------------------------------------------------------------------------
DR8       -1.86 dB   -12.06 dB      2:27 01-Tutti Frutti
DR13      -0.24 dB   -14.32 dB      2:45 02-True, Fine Mama
DR9       -2.24 dB   -14.08 dB      2:29 03-Can't Believe You Wanna' Leave
DR10      -0.06 dB   -12.89 dB      2:11 04-Ready Teddy
DR9       -1.48 dB   -13.45 dB      2:07 05-Baby
DR12      -0.01 dB   -13.98 dB      2:46 06-Slippin' And Slidin'
DR11      -0.10 dB   -13.05 dB      2:11 07-Long Tall Sally
DR11      -0.03 dB   -14.24 dB      2:19 08-Miss Ann
DR12      -0.47 dB   -14.86 dB      2:11 09-Oh Why?
DR11      -1.22 dB   -13.97 dB      2:25 10-Rip It Up
DR9       -2.47 dB   -13.38 dB      2:06 11-Jenny Jenny
DR14      -0.03 dB   -16.02 dB      2:30 12-She's Got It
DR10      -1.39 dB   -12.57 dB      2:22 13-Keep A Knockin'
DR10      -2.10 dB   -14.23 dB      2:09 14-By The Light Of The Silvery Moon
DR9       -2.01 dB   -14.53 dB      2:21 15-Send Me Some Lovin'
DR12      -0.07 dB   -13.75 dB      2:21 16-I'll Never Let You Go
DR11      -0.01 dB   -14.71 dB      2:17 17-Heeby-Jeebies aka Heebie Jeebies
DR9       -2.29 dB   -14.16 dB      2:23 18-All Around The World
DR11      -0.60 dB   -12.87 dB      2:12 19-Good Golly, Miss Molly
DR8       -1.07 dB   -11.42 dB      2:13 20-Baby Face
DR10      -0.07 dB   -11.92 dB      2:09 21-Hey-Hey-Hey-Hey
DR9       -0.53 dB   -11.47 dB      2:10 22-Ooh! My Soul
DR11      -0.11 dB   -12.90 dB      2:33 23-The Girl Can't Help It
DR10      -0.45 dB   -12.51 dB      2:22 24-Lucille
--------------------------------------------------------------------------------

Number of tracks:  24
Official DR value: DR10

Samplerate:        88200 Hz
Channels:          2
Bits per sample:   24
Bitrate:           1595 kbps
Codec:             FLAC
================================================================================




Create a new paste based on this one


Comments: