[ create a new paste ] login | about

Link: http://codepad.org/IMofFZBi    [ raw code | fork ]

Plain Text, pasted on Feb 10:
foobar2000 1.5 / Dynamic Range Meter 1.1.1
log date: 2020-02-10 23:06:00

--------------------------------------------------------------------------------
Analyzed: Wes Montgomery / Incredible Jazz Guitar
--------------------------------------------------------------------------------

DR         Peak         RMS     Duration Track
--------------------------------------------------------------------------------
DR12      -4.03 dB   -18.51 dB      4:26 01-Airegin
DR11      -5.15 dB   -20.76 dB      5:21 02-D-Natural Blues
DR14      -5.96 dB   -25.31 dB      4:40 03-Polka Dots And Moonbeams
DR12      -5.62 dB   -19.71 dB      6:14 04-Four On Six
DR11      -3.98 dB   -17.50 dB      7:22 05-West Coast Blues
DR11      -7.29 dB   -22.51 dB      4:51 06-In Your Own Sweet Way
DR13      -4.07 dB   -19.57 dB      4:31 07-Mr. Walker
DR12      -4.16 dB   -20.41 dB      6:21 08-Gone With The Wind
--------------------------------------------------------------------------------

Number of tracks:  8
Official DR value: DR12

Samplerate:        2822400 Hz / PCM Samplerate: 44100 Hz
Channels:          2
Bits per sample:   1
Bitrate:           5645 kbps
Codec:             DSD64
================================================================================




Create a new paste based on this one


Comments: