[ create a new paste ] login | about

Link: http://codepad.org/INkdIJyP    [ raw code | fork ]

Plain Text, pasted on Jun 9:
X Lossless Decoder version 20191004 (152.0)

XLD extraction logfile from 2020-03-09 19:21:01 -0400

James Taylor / American Standard [Bonus Tracks]

Used drive : MATSHITA DVD-R   UJ-898 (revision HE13)
Media type : Pressed CD

Ripper mode             : XLD Secure Ripper
Disable audio cache     : OK for the drive with a cache less than 1375KiB
Make use of C2 pointers : NO
Read offset correction  : 102
Max retry count         : 100
Gap status              : Analyzed, Appended (except HTOA)

TOC of the extracted CD
     Track |   Start  |  Length  | Start sector | End sector 
    ---------------------------------------------------------
        1  | 00:00:00 | 02:43:12 |         0    |    12236   
        2  | 02:43:12 | 03:13:16 |     12237    |    26727   
        3  | 05:56:28 | 02:58:60 |     26728    |    40137   
        4  | 08:55:13 | 02:50:32 |     40138    |    52919   
        5  | 11:45:45 | 03:42:43 |     52920    |    69612   
        6  | 15:28:13 | 04:11:01 |     69613    |    88438   
        7  | 19:39:14 | 03:52:26 |     88439    |   105864   
        8  | 23:31:40 | 02:26:26 |    105865    |   116840   
        9  | 25:57:66 | 03:21:57 |    116841    |   131972   
       10  | 29:19:48 | 02:52:18 |    131973    |   144890   
       11  | 32:11:66 | 03:27:04 |    144891    |   160419   
       12  | 35:38:70 | 02:53:40 |    160420    |   173434   
       13  | 38:32:35 | 03:11:67 |    173435    |   187826   
       14  | 41:44:27 | 03:20:00 |    187827    |   202826   
       15  | 45:04:27 | 02:15:31 |    202827    |   212982   
       16  | 47:19:58 | 03:22:45 |    212983    |   228177   

AccurateRip Summary
    Disc not found in AccurateRip DB.

All Tracks
    Album gain               : -7.93 dB
    Peak                     : 0.991302
    Statistics
        Read error                           : 0
        Jitter error (maybe fixed)           : 0
        Retry sector count                   : 0
        Damaged sector count                 : 0

Track 01
    Filename : /Users/Rips/James Taylor - American Standard [Bonus Tracks] (2020) [FLAC]/01 My Blue Heaven.flac
    Pre-gap length : 00:02:00

    Track gain               : -8.06 dB
    Peak                     : 0.982391
    CRC32 hash (test run)    : 8102B9D5
    CRC32 hash               : 8102B9D5
    CRC32 hash (skip zero)   : E0242399
    AccurateRip v1 signature : A9D6E27F
    AccurateRip v2 signature : EB3C2606
        ->Track not present in AccurateRip database.
    Statistics
        Read error                           : 0
        Jitter error (maybe fixed)           : 0
        Retry sector count                   : 0
        Damaged sector count                 : 0

Track 02
    Filename : /Users/Rips/James Taylor - American Standard [Bonus Tracks] (2020) [FLAC]/02 Moon River.flac

    Track gain               : -7.33 dB
    Peak                     : 0.966858
    CRC32 hash (test run)    : ED263878
    CRC32 hash               : ED263878
    CRC32 hash (skip zero)   : B875EB88
    AccurateRip v1 signature : F6A088A7
    AccurateRip v2 signature : 6E1C26BE
        ->Track not present in AccurateRip database.
    Statistics
        Read error                           : 0
        Jitter error (maybe fixed)           : 0
        Retry sector count                   : 0
        Damaged sector count                 : 0

Track 03
    Filename : /Users/Rips/James Taylor - American Standard [Bonus Tracks] (2020) [FLAC]/03 Teach Me Tonight.flac

    Track gain               : -8.60 dB
    Peak                     : 0.976929
    CRC32 hash (test run)    : D3FEF7F3
    CRC32 hash               : D3FEF7F3
    CRC32 hash (skip zero)   : BB82711B
    AccurateRip v1 signature : B90E6905
    AccurateRip v2 signature : 714962FB
        ->Track not present in AccurateRip database.
    Statistics
        Read error                           : 0
        Jitter error (maybe fixed)           : 0
        Retry sector count                   : 0
        Damaged sector count                 : 0

Track 04
    Filename : /Users/Rips/James Taylor - American Standard [Bonus Tracks] (2020) [FLAC]/04 As Easy As Rolling Off A Log.flac

    Track gain               : -8.27 dB
    Peak                     : 0.969025
    CRC32 hash (test run)    : B7AE2280
    CRC32 hash               : B7AE2280
    CRC32 hash (skip zero)   : 192B0A18
    AccurateRip v1 signature : 12E2AE6E
    AccurateRip v2 signature : F40EBC26
        ->Track not present in AccurateRip database.
    Statistics
        Read error                           : 0
        Jitter error (maybe fixed)           : 0
        Retry sector count                   : 0
        Damaged sector count                 : 0

Track 05
    Filename : /Users/Rips/James Taylor - American Standard [Bonus Tracks] (2020) [FLAC]/05 Almost Like Being In Love.flac

    Track gain               : -8.12 dB
    Peak                     : 0.991302
    CRC32 hash (test run)    : 83F45A93
    CRC32 hash               : 83F45A93
    CRC32 hash (skip zero)   : 747B7C87
    AccurateRip v1 signature : 26411184
    AccurateRip v2 signature : C93FF6B4
        ->Track not present in AccurateRip database.
    Statistics
        Read error                           : 0
        Jitter error (maybe fixed)           : 0
        Retry sector count                   : 0
        Damaged sector count                 : 0

Track 06
    Filename : /Users/Rips/James Taylor - American Standard [Bonus Tracks] (2020) [FLAC]/06 Sit Down, You're Rockin' The Boat.flac

    Track gain               : -8.02 dB
    Peak                     : 0.971558
    CRC32 hash (test run)    : B565CAB1
    CRC32 hash               : B565CAB1
    CRC32 hash (skip zero)   : 209C2126
    AccurateRip v1 signature : 49D9355F
    AccurateRip v2 signature : CD6220C7
        ->Track not present in AccurateRip database.
    Statistics
        Read error                           : 0
        Jitter error (maybe fixed)           : 0
        Retry sector count                   : 0
        Damaged sector count                 : 0

Track 07
    Filename : /Users/Rips/James Taylor - American Standard [Bonus Tracks] (2020) [FLAC]/07 The Nearness Of You.flac

    Track gain               : -8.81 dB
    Peak                     : 0.983978
    CRC32 hash (test run)    : 1A61376B
    CRC32 hash               : 1A61376B
    CRC32 hash (skip zero)   : 3C0ACC8A
    AccurateRip v1 signature : 148D9F3E
    AccurateRip v2 signature : CB5CF107
        ->Track not present in AccurateRip database.
    Statistics
        Read error                           : 0
        Jitter error (maybe fixed)           : 0
        Retry sector count                   : 0
        Damaged sector count                 : 0

Track 08
    Filename : /Users/Rips/James Taylor - American Standard [Bonus Tracks] (2020) [FLAC]/08 You've Got To Be Carefully Taught.flac

    Track gain               : -7.82 dB
    Peak                     : 0.973511
    CRC32 hash (test run)    : 395D8CCB
    CRC32 hash               : 395D8CCB
    CRC32 hash (skip zero)   : 80ACCEEA
    AccurateRip v1 signature : 9655B9D5
    AccurateRip v2 signature : BF026C6D
        ->Track not present in AccurateRip database.
    Statistics
        Read error                           : 0
        Jitter error (maybe fixed)           : 0
        Retry sector count                   : 0
        Damaged sector count                 : 0

Track 09
    Filename : /Users/Rips/James Taylor - American Standard [Bonus Tracks] (2020) [FLAC]/09 God Bless The Child.flac

    Track gain               : -7.75 dB
    Peak                     : 0.987122
    CRC32 hash (test run)    : C8734C12
    CRC32 hash               : C8734C12
    CRC32 hash (skip zero)   : AB28AA50
    AccurateRip v1 signature : D318AE90
    AccurateRip v2 signature : B84A3F48
        ->Track not present in AccurateRip database.
    Statistics
        Read error                           : 0
        Jitter error (maybe fixed)           : 0
        Retry sector count                   : 0
        Damaged sector count                 : 0

Track 10
    Filename : /Users/Rips/James Taylor - American Standard [Bonus Tracks] (2020) [FLAC]/10 Pennies From Heaven.flac

    Track gain               : -8.07 dB
    Peak                     : 0.973572
    CRC32 hash (test run)    : AB00FA12
    CRC32 hash               : AB00FA12
    CRC32 hash (skip zero)   : 5AA349FB
    AccurateRip v1 signature : 665AA23C
    AccurateRip v2 signature : ECBC5656
        ->Track not present in AccurateRip database.
    Statistics
        Read error                           : 0
        Jitter error (maybe fixed)           : 0
        Retry sector count                   : 0
        Damaged sector count                 : 0

Track 11
    Filename : /Users/Rips/James Taylor - American Standard [Bonus Tracks] (2020) [FLAC]/11 My Heart Stood Still.flac

    Track gain               : -8.68 dB
    Peak                     : 0.971741
    CRC32 hash (test run)    : 8295309E
    CRC32 hash               : 8295309E
    CRC32 hash (skip zero)   : 3CDBE10B
    AccurateRip v1 signature : 6E9F1C23
    AccurateRip v2 signature : 484A33C9
        ->Track not present in AccurateRip database.
    Statistics
        Read error                           : 0
        Jitter error (maybe fixed)           : 0
        Retry sector count                   : 0
        Damaged sector count                 : 0

Track 12
    Filename : /Users/Rips/James Taylor - American Standard [Bonus Tracks] (2020) [FLAC]/12 Ol' Man River.flac

    Track gain               : -6.75 dB
    Peak                     : 0.982361
    CRC32 hash (test run)    : F31E9F1F
    CRC32 hash               : F31E9F1F
    CRC32 hash (skip zero)   : FDDA053E
    AccurateRip v1 signature : 38E8E6A9
    AccurateRip v2 signature : 8158F2A4
        ->Track not present in AccurateRip database.
    Statistics
        Read error                           : 0
        Jitter error (maybe fixed)           : 0
        Retry sector count                   : 0
        Damaged sector count                 : 0

Track 13
    Filename : /Users/Rips/James Taylor - American Standard [Bonus Tracks] (2020) [FLAC]/13 It's Only A Paper Moon.flac

    Track gain               : -7.45 dB
    Peak                     : 0.968964
    CRC32 hash (test run)    : 6DDF90D4
    CRC32 hash               : 6DDF90D4
    CRC32 hash (skip zero)   : 94943DBA
    AccurateRip v1 signature : CB31A5B4
    AccurateRip v2 signature : 10572465
        ->Track not present in AccurateRip database.
    Statistics
        Read error                           : 0
        Jitter error (maybe fixed)           : 0
        Retry sector count                   : 0
        Damaged sector count                 : 0

Track 14
    Filename : /Users/Rips/James Taylor - American Standard [Bonus Tracks] (2020) [FLAC]/14 The Surrey With The Fringe On Top.flac

    Track gain               : -7.00 dB
    Peak                     : 0.966248
    CRC32 hash (test run)    : 5B9616B5
    CRC32 hash               : 5B9616B5
    CRC32 hash (skip zero)   : EC853317
    AccurateRip v1 signature : 3145D70D
    AccurateRip v2 signature : 01153555
        ->Track not present in AccurateRip database.
    Statistics
        Read error                           : 0
        Jitter error (maybe fixed)           : 0
        Retry sector count                   : 0
        Damaged sector count                 : 0

Track 15
    Filename : /Users/Rips/James Taylor - American Standard [Bonus Tracks] (2020) [FLAC]/15 I've Grown Accustomed To Her Face.flac

    Track gain               : -7.59 dB
    Peak                     : 0.972870
    CRC32 hash (test run)    : 6D15F2C6
    CRC32 hash               : 6D15F2C6
    CRC32 hash (skip zero)   : A74C0C7C
    AccurateRip v1 signature : 55C4A30C
    AccurateRip v2 signature : 2F51EFD7
        ->Track not present in AccurateRip database.
    Statistics
        Read error                           : 0
        Jitter error (maybe fixed)           : 0
        Retry sector count                   : 0
        Damaged sector count                 : 0

Track 16
    Filename : /Users/Rips/James Taylor - American Standard [Bonus Tracks] (2020) [FLAC]/16 Never Never Land.flac

    Track gain               : -7.59 dB
    Peak                     : 0.974609
    CRC32 hash (test run)    : 44C6C433
    CRC32 hash               : 44C6C433
    CRC32 hash (skip zero)   : 97F446A3
    AccurateRip v1 signature : 24F402B2
    AccurateRip v2 signature : 424C7FB2
        ->Track not present in AccurateRip database.
    Statistics
        Read error                           : 0
        Jitter error (maybe fixed)           : 0
        Retry sector count                   : 0
        Damaged sector count                 : 0

No errors occurred

End of status report

-----BEGIN XLD SIGNATURE-----
b9v44W0nQV4ItswvI3WR5CQKOjMTSGSDgE_BjrBWEAP.RHD2Cmf7wzWgBRPV_yyWJ9lHE_nGuE0r08BpPXUFvAq.DLHjN9wgjisDD9e
-----END XLD SIGNATURE-----



Create a new paste based on this one


Comments: