[ create a new paste ] login | about

Link: http://codepad.org/IS9r0e09    [ raw code | fork ]

Plain Text, pasted on Feb 4:
1
2
3
4
5
6
7
8
9
10
11
12
13
14
15
16
17
18
19
20
21
22
23
24
25
26
27
28
29
30
31
32
33
34
35
36
37
38
39
40
41
42
43
44
45
46
47
48
49
50
51
52
53
54
55
56
57
58
59
60
61
62
63
64
65
66
67
68
69
70
71
72
73
74
75
76
77
78
79
80
81
82
83
84
85
86
87
88
89
90
91
92
93
94
95
96
97
98
99
100
101
102
103
104
105
106
107
108
109
110
111
112
113
114
115
116
117
118
119
120
121
122
123
124
125
126
127
128
129
130
131
132
133
134
135
136
137
138
139
140
141
142
143
144
145
146
147
148
149
150
151
152
153
154
155
156
157
158
159
160
161
162
163
164
165
166
167
168
169
170
171
172
173
174
175
176
177
178
179
180
181
182
183
184
185
186
187
188
189
190
191
192
193
194
195
196
197
198
199
200
201
202
203
204
205
206
207
208
209
210
211
212
213
214
215
216
217
218
219
220
221
222
223
224
225
226
227
228
229
230
231
232
233
234
235
236
237
238
239
240
241
242
243
244
245
246
247
248
249
250
251
252
253
254
255
256
257
258
259
260
261
262
263
264
265
266
267
268
269
270
271
272
273
274
275
276
277
278
279
280
281
282
283
284
285
286
287
288
289
290
291
292
293
294
295
296
297
298
299
300
301
302
303
304
305
306
307
308
309
310
311
312
313
314
315
316
317
318
319
320
321
322
323
324
325
326
327
328
329
330
331
332
333
334
335
336
337
338
339
340
341
342
343
344
345
346
347
348
349
350
351
352
353
354
355
356
357
358
359
360
361
362
363
364
365
366
367
368
369
370
371
372
373
374
375
376
377
378
379
380
381
382
383
384
385
386
387
388
389
390
391
392
393
394
395
396
397
398
399
400
401
402
403
404
405
406
407
408
409
410
411
412
413
414
415
416
417
418
419
420
421
422
423
424
425
426
427
428
429
430
431
432
433
434
435
436
437
438
439
440
441
442
443
444
445
446
447
448
449
450
451
452
453
454
455
456
457
458
459
460
461
462
463
464
465
466
467
468
469
470
471
472
473
474
475
476
477
478
479
480
481
482
483
484
485
486
487
488
489
490
491
492
493
494
495
496
497
498
499
500
501
502
503
504
505
506
507
508
509
510
511
512
513
514
515
516
517
518
519
520
521
522
523
524
525
526
527
528
529
Exact Audio Copy V1.3 from 2. September 2016

EAC extraction logfile from 9. March 2018, 14:40

The Beach Boys / 1967 - Sunshine Tomorrow

Used drive  : TSSTcorpCDDVDW SU-208DB   Adapter: 1  ID: 0

Read mode               : Secure
Utilize accurate stream : Yes
Defeat audio cache      : Yes
Make use of C2 pointers : No

Read offset correction                      : 48
Overread into Lead-In and Lead-Out          : No
Fill up missing offset samples with silence : Yes
Delete leading and trailing silent blocks   : No
Null samples used in CRC calculations       : Yes
Used interface                              : Native Win32 interface for Win NT & 2000
Gap handling                                : Appended to previous track

Used output format              : User Defined Encoder
Selected bitrate                : 128 kBit/s
Quality                         : High
Add ID3 tag                     : No
Command line compressor         : C:\Program Files (x86)\Exact Audio Copy\Flac\flac.exe
Additional command line options : -8 -V -T "ARTIST=%artist%" -T "TITLE=%title%" -T "ALBUM=%albumtitle%" -T "DATE=%year%" -T "TRACKNUMBER=%tracknr%" -T "GENRE=%genre%" -T "PERFORMER=%albuminterpret%" -T "COMPOSER=%composer%" %haslyrics%--tag-from-file=LYRICS="%lyricsfile%"%haslyrics% -T "ALBUMARTIST=%albumartist%" -T "DISCNUMBER=%cdnumber%" -T "TOTALDISCS=%totalcds%" -T "TOTALTRACKS=%numtracks%" -T "COMMENT=%comment%" %source% -o %dest%


TOC of the extracted CD

     Track |   Start  |  Length  | Start sector | End sector 
    ---------------------------------------------------------
        1  |  0:00.00 |  3:37.72 |         0    |    16346   
        2  |  3:37.72 |  2:55.29 |     16347    |    29500   
        3  |  6:33.26 |  2:28.72 |     29501    |    40672   
        4  |  9:02.23 |  0:48.24 |     40673    |    44296   
        5  |  9:50.47 |  2:21.44 |     44297    |    54915   
        6  | 12:12.16 |  0:50.58 |     54916    |    58723   
        7  | 13:02.74 |  2:38.67 |     58724    |    70640   
        8  | 15:41.66 |  1:03.48 |     70641    |    75413   
        9  | 16:45.39 |  0:50.28 |     75414    |    79191   
       10  | 17:35.67 |  0:34.66 |     79192    |    81807   
       11  | 18:10.58 |  0:24.17 |     81808    |    83624   
       12  | 18:35.00 |  1:53.56 |     83625    |    92155   
       13  | 20:28.56 |  2:30.66 |     92156    |   103471   
       14  | 22:59.47 |  2:23.64 |    103472    |   114260   
       15  | 25:23.36 |  2:28.54 |    114261    |   125414   
       16  | 27:52.15 |  2:17.13 |    125415    |   135702   
       17  | 30:09.28 |  2:49.53 |    135703    |   148430   
       18  | 32:59.06 |  2:20.46 |    148431    |   158976   
       19  | 35:19.52 |  2:33.10 |    158977    |   170461   
       20  | 37:52.62 |  2:45.05 |    170462    |   182841   
       21  | 40:37.67 |  4:13.40 |    182842    |   201856   
       22  | 44:51.32 |  2:10.58 |    201857    |   211664   
       23  | 47:02.15 |  1:56.42 |    211665    |   220406   
       24  | 48:58.57 |  2:21.22 |    220407    |   231003   
       25  | 51:20.04 |  1:04.65 |    231004    |   235868   
       26  | 52:24.69 |  1:39.52 |    235869    |   243345   
       27  | 54:04.46 |  3:18.68 |    243346    |   258263   
       28  | 57:23.39 |  1:11.25 |    258264    |   263613   
       29  | 58:34.64 |  4:44.69 |    263614    |   284982   
       30  | 63:19.58 |  2:32.11 |    284983    |   296393   
       31  | 65:51.69 |  2:56.01 |    296394    |   309594   
       32  | 68:47.70 |  2:39.55 |    309595    |   321574   
       33  | 71:27.50 |  5:19.22 |    321575    |   345521   
       34  | 76:46.72 |  2:17.02 |    345522    |   355798   


Track  1

     Filename C:\EAC Rips\The Beach Boys - 1967 - Sunshine Tomorrow (2017) [FLAC]\Disc 2\01. Heroes and Villains (single version backing track).wav

     Pre-gap length  0:00:02.00

     Peak level 77.2 %
     Extraction speed 2.9 X
     Track quality 100.0 %
     Test CRC AD739B52
     Copy CRC AD739B52
     Accurately ripped (confidence 55)  [9D06F1F8]  (AR v2)
     Copy OK

Track  2

     Filename C:\EAC Rips\The Beach Boys - 1967 - Sunshine Tomorrow (2017) [FLAC]\Disc 2\02. Vegetables (long version).wav

     Peak level 98.7 %
     Extraction speed 3.0 X
     Track quality 100.0 %
     Test CRC 6D428A3F
     Copy CRC 6D428A3F
     Accurately ripped (confidence 55)  [1AE6C49C]  (AR v2)
     Copy OK

Track  3

     Filename C:\EAC Rips\The Beach Boys - 1967 - Sunshine Tomorrow (2017) [FLAC]\Disc 2\03. Fall Breaks and Back to Winter (alternate mix).wav

     Peak level 82.1 %
     Extraction speed 3.0 X
     Track quality 100.0 %
     Test CRC 7A43FDDF
     Copy CRC 7A43FDDF
     Accurately ripped (confidence 55)  [A0EDB4AC]  (AR v2)
     Copy OK

Track  4

     Filename C:\EAC Rips\The Beach Boys - 1967 - Sunshine Tomorrow (2017) [FLAC]\Disc 2\04. Wind Chimes (alternate tag section).wav

     Peak level 56.6 %
     Extraction speed 2.1 X
     Track quality 100.0 %
     Test CRC D8B1C176
     Copy CRC D8B1C176
     Accurately ripped (confidence 55)  [6BBD8C33]  (AR v2)
     Copy OK

Track  5

     Filename C:\EAC Rips\The Beach Boys - 1967 - Sunshine Tomorrow (2017) [FLAC]\Disc 2\05. Wonderful (backing track).wav

     Peak level 95.8 %
     Extraction speed 3.2 X
     Track quality 100.0 %
     Test CRC 72E66241
     Copy CRC 72E66241
     Accurately ripped (confidence 54)  [C07ED7CD]  (AR v2)
     Copy OK

Track  6

     Filename C:\EAC Rips\The Beach Boys - 1967 - Sunshine Tomorrow (2017) [FLAC]\Disc 2\06. With Me Tonight (alternate version with session intro).wav

     Peak level 70.8 %
     Extraction speed 1.4 X
     Track quality 99.7 %
     Test CRC 0333A17C
     Copy CRC 0333A17C
     Accurately ripped (confidence 55)  [96EEDA51]  (AR v2)
     Copy OK

Track  7

     Filename C:\EAC Rips\The Beach Boys - 1967 - Sunshine Tomorrow (2017) [FLAC]\Disc 2\07. Little Pad (backing track).wav

     Peak level 92.0 %
     Extraction speed 3.4 X
     Track quality 100.0 %
     Test CRC 0EEAA6FB
     Copy CRC 0EEAA6FB
     Accurately ripped (confidence 55)  [AFD0B67E]  (AR v2)
     Copy OK

Track  8

     Filename C:\EAC Rips\The Beach Boys - 1967 - Sunshine Tomorrow (2017) [FLAC]\Disc 2\08. All Day All Night (Whistle In) (alternate version 1).wav

     Peak level 82.9 %
     Extraction speed 2.7 X
     Track quality 100.0 %
     Test CRC 68B8E32F
     Copy CRC 68B8E32F
     Accurately ripped (confidence 55)  [E4A2D371]  (AR v2)
     Copy OK

Track  9

     Filename C:\EAC Rips\The Beach Boys - 1967 - Sunshine Tomorrow (2017) [FLAC]\Disc 2\09. All Day All Night (Whistle In) (alternate version 2).wav

     Peak level 70.7 %
     Extraction speed 2.4 X
     Track quality 100.0 %
     Test CRC 420BD5E5
     Copy CRC 420BD5E5
     Accurately ripped (confidence 55)  [C5044AF1]  (AR v2)
     Copy OK

Track 10

     Filename C:\EAC Rips\The Beach Boys - 1967 - Sunshine Tomorrow (2017) [FLAC]\Disc 2\10. Untitled (Redwood).wav

     Peak level 45.8 %
     Extraction speed 2.1 X
     Track quality 100.0 %
     Test CRC 2DBACF68
     Copy CRC 2DBACF68
     Accurately ripped (confidence 55)  [3B496E40]  (AR v2)
     Copy OK

Track 11

     Filename C:\EAC Rips\The Beach Boys - 1967 - Sunshine Tomorrow (2017) [FLAC]\Disc 2\11. Fred Vail Intro.wav

     Peak level 65.4 %
     Extraction speed 0.9 X
     Track quality 99.5 %
     Test CRC 40CEB9AC
     Copy CRC 40CEB9AC
     Accurately ripped (confidence 56)  [E88217C4]  (AR v2)
     Copy OK

Track 12

     Filename C:\EAC Rips\The Beach Boys - 1967 - Sunshine Tomorrow (2017) [FLAC]\Disc 2\12. The Letter.wav

     Peak level 61.6 %
     Extraction speed 3.4 X
     Track quality 100.0 %
     Test CRC C88E8FF7
     Copy CRC C88E8FF7
     Accurately ripped (confidence 56)  [7E28BE3F]  (AR v2)
     Copy OK

Track 13

     Filename C:\EAC Rips\The Beach Boys - 1967 - Sunshine Tomorrow (2017) [FLAC]\Disc 2\13. You're So Good to Me.wav

     Peak level 78.3 %
     Extraction speed 3.8 X
     Track quality 100.0 %
     Test CRC E3BAC309
     Copy CRC E3BAC309
     Accurately ripped (confidence 56)  [3D21F0B6]  (AR v2)
     Copy OK

Track 14

     Filename C:\EAC Rips\The Beach Boys - 1967 - Sunshine Tomorrow (2017) [FLAC]\Disc 2\14. Help Me, Rhonda.wav

     Peak level 84.3 %
     Extraction speed 3.9 X
     Track quality 100.0 %
     Test CRC B4391217
     Copy CRC B4391217
     Accurately ripped (confidence 56)  [3623F5CD]  (AR v2)
     Copy OK

Track 15

     Filename C:\EAC Rips\The Beach Boys - 1967 - Sunshine Tomorrow (2017) [FLAC]\Disc 2\15. California Girls.wav

     Peak level 54.0 %
     Extraction speed 3.0 X
     Track quality 99.9 %
     Test CRC 34BABA94
     Copy CRC 34BABA94
     Accurately ripped (confidence 56)  [BB101005]  (AR v2)
     Copy OK

Track 16

     Filename C:\EAC Rips\The Beach Boys - 1967 - Sunshine Tomorrow (2017) [FLAC]\Disc 2\16. Surfer Girl.wav

     Peak level 60.7 %
     Extraction speed 4.0 X
     Track quality 100.0 %
     Test CRC 9DE37231
     Copy CRC 9DE37231
     Accurately ripped (confidence 56)  [6404BC17]  (AR v2)
     Copy OK

Track 17

     Filename C:\EAC Rips\The Beach Boys - 1967 - Sunshine Tomorrow (2017) [FLAC]\Disc 2\17. Sloop John B.wav

     Peak level 51.6 %
     Extraction speed 4.3 X
     Track quality 100.0 %
     Test CRC 1F1715DF
     Copy CRC 1F1715DF
     Accurately ripped (confidence 56)  [2A8C79B1]  (AR v2)
     Copy OK

Track 18

     Filename C:\EAC Rips\The Beach Boys - 1967 - Sunshine Tomorrow (2017) [FLAC]\Disc 2\18. With a Little Help From My Friends.wav

     Peak level 77.1 %
     Extraction speed 4.2 X
     Track quality 100.0 %
     Test CRC 0A9C3F43
     Copy CRC 0A9C3F43
     Accurately ripped (confidence 56)  [E00B793D]  (AR v2)
     Copy OK

Track 19

     Filename C:\EAC Rips\The Beach Boys - 1967 - Sunshine Tomorrow (2017) [FLAC]\Disc 2\19. Their Hearts Were Full of Spring.wav

     Peak level 63.2 %
     Extraction speed 4.4 X
     Track quality 100.0 %
     Test CRC 7B2767CF
     Copy CRC 7B2767CF
     Accurately ripped (confidence 56)  [C180B0CD]  (AR v2)
     Copy OK

Track 20

     Filename C:\EAC Rips\The Beach Boys - 1967 - Sunshine Tomorrow (2017) [FLAC]\Disc 2\20. God Only Knows.wav

     Peak level 62.9 %
     Extraction speed 4.6 X
     Track quality 100.0 %
     Test CRC 2EBD7C27
     Copy CRC 2EBD7C27
     Accurately ripped (confidence 56)  [F19AB230]  (AR v2)
     Copy OK

Track 21

     Filename C:\EAC Rips\The Beach Boys - 1967 - Sunshine Tomorrow (2017) [FLAC]\Disc 2\21. Good Vibrations.wav

     Peak level 84.0 %
     Extraction speed 5.0 X
     Track quality 100.0 %
     Test CRC F6626511
     Copy CRC F6626511
     Accurately ripped (confidence 56)  [7616F1B9]  (AR v2)
     Copy OK

Track 22

     Filename C:\EAC Rips\The Beach Boys - 1967 - Sunshine Tomorrow (2017) [FLAC]\Disc 2\22. Game of Love.wav

     Peak level 84.7 %
     Extraction speed 3.4 X
     Track quality 99.9 %
     Test CRC EF7D8E26
     Copy CRC EF7D8E26
     Accurately ripped (confidence 56)  [C26133F7]  (AR v2)
     Copy OK

Track 23

     Filename C:\EAC Rips\The Beach Boys - 1967 - Sunshine Tomorrow (2017) [FLAC]\Disc 2\23. The Letter (alternate take).wav

     Peak level 79.4 %
     Extraction speed 4.5 X
     Track quality 100.0 %
     Test CRC 1B099B94
     Copy CRC 1B099B94
     Accurately ripped (confidence 55)  [D6F466C2]  (AR v2)
     Copy OK

Track 24

     Filename C:\EAC Rips\The Beach Boys - 1967 - Sunshine Tomorrow (2017) [FLAC]\Disc 2\24. With a Little Help From My Friends (stereo mix).wav

     Peak level 98.9 %
     Extraction speed 4.7 X
     Track quality 100.0 %
     Test CRC 4DAEFBA8
     Copy CRC 4DAEFBA8
     Accurately ripped (confidence 55)  [BA7D98C3]  (AR v2)
     Copy OK

Track 25

     Filename C:\EAC Rips\The Beach Boys - 1967 - Sunshine Tomorrow (2017) [FLAC]\Disc 2\25. Hawthorne Boulevard.wav

     Peak level 70.3 %
     Extraction speed 3.9 X
     Track quality 100.0 %
     Test CRC E0FFC4F6
     Copy CRC E0FFC4F6
     Accurately ripped (confidence 55)  [AA7B7D2E]  (AR v2)
     Copy OK

Track 26

     Filename C:\EAC Rips\The Beach Boys - 1967 - Sunshine Tomorrow (2017) [FLAC]\Disc 2\26. Surfin'.wav

     Peak level 93.4 %
     Extraction speed 4.6 X
     Track quality 100.0 %
     Test CRC 61296598
     Copy CRC 61296598
     Accurately ripped (confidence 54)  [A0496EF0]  (AR v2)
     Copy OK

Track 27

     Filename C:\EAC Rips\The Beach Boys - 1967 - Sunshine Tomorrow (2017) [FLAC]\Disc 2\27. Gettin' Hungry.wav

     Peak level 75.1 %
     Extraction speed 5.3 X
     Track quality 100.0 %
     Test CRC 1F2FD6EC
     Copy CRC 1F2FD6EC
     Accurately ripped (confidence 54)  [474751B3]  (AR v2)
     Copy OK

Track 28

     Filename C:\EAC Rips\The Beach Boys - 1967 - Sunshine Tomorrow (2017) [FLAC]\Disc 2\28. Hawaii (rehearsal take).wav

     Peak level 69.7 %
     Extraction speed 4.1 X
     Track quality 100.0 %
     Test CRC A5741524
     Copy CRC A5741524
     Accurately ripped (confidence 54)  [E56CBD6A]  (AR v2)
     Copy OK

Track 29

     Filename C:\EAC Rips\The Beach Boys - 1967 - Sunshine Tomorrow (2017) [FLAC]\Disc 2\29. Heroes and Villains (rehearsal).wav

     Peak level 100.0 %
     Extraction speed 5.8 X
     Track quality 100.0 %
     Test CRC C4D65C48
     Copy CRC C4D65C48
     Accurately ripped (confidence 54)  [B52C30A8]  (AR v2)
     Copy OK

Track 30

     Filename C:\EAC Rips\The Beach Boys - 1967 - Sunshine Tomorrow (2017) [FLAC]\Disc 2\30. California Girls (live).wav

     Peak level 83.0 %
     Extraction speed 5.4 X
     Track quality 100.0 %
     Test CRC FB1ADB52
     Copy CRC FB1ADB52
     Accurately ripped (confidence 54)  [BBFCE170]  (AR v2)
     Copy OK

Track 31

     Filename C:\EAC Rips\The Beach Boys - 1967 - Sunshine Tomorrow (2017) [FLAC]\Disc 2\31. Graduation Day (live).wav

     Peak level 47.0 %
     Extraction speed 5.6 X
     Track quality 100.0 %
     Test CRC 27FAD399
     Copy CRC 27FAD399
     Accurately ripped (confidence 54)  [1107B0B4]  (AR v2)
     Copy OK

Track 32

     Filename C:\EAC Rips\The Beach Boys - 1967 - Sunshine Tomorrow (2017) [FLAC]\Disc 2\32. I Get Around (live).wav

     Peak level 69.2 %
     Extraction speed 5.6 X
     Track quality 100.0 %
     Test CRC B77E3EF3
     Copy CRC B77E3EF3
     Accurately ripped (confidence 54)  [F3534BEA]  (AR v2)
     Copy OK

Track 33

     Filename C:\EAC Rips\The Beach Boys - 1967 - Sunshine Tomorrow (2017) [FLAC]\Disc 2\33. Surf's Up (1967 version).wav

     Peak level 58.1 %
     Extraction speed 6.2 X
     Track quality 100.0 %
     Test CRC 3E09EED6
     Copy CRC 3E09EED6
     Accurately ripped (confidence 54)  [13842868]  (AR v2)
     Copy OK

Track 34

     Filename C:\EAC Rips\The Beach Boys - 1967 - Sunshine Tomorrow (2017) [FLAC]\Disc 2\34. Surfer Girl (1967 a cappella mix).wav

     Peak level 63.0 %
     Extraction speed 5.6 X
     Track quality 100.0 %
     Test CRC 778824CD
     Copy CRC 778824CD
     Accurately ripped (confidence 54)  [2F8E6605]  (AR v2)
     Copy OK


All tracks accurately ripped

No errors occurred

End of status report

---- CUETools DB Plugin V2.1.6

[CTDB TOCID: bMcRmLbmHazAsj14nudQ4DQKHlA-] found
Submit result: already submitted
Track | CTDB Status
  1   | (189/190) Accurately ripped
  2   | (189/190) Accurately ripped
  3   | (189/190) Accurately ripped
  4   | (189/190) Accurately ripped
  5   | (186/190) Accurately ripped
  6   | (187/190) Accurately ripped
  7   | (187/190) Accurately ripped
  8   | (188/190) Accurately ripped
  9   | (188/190) Accurately ripped
 10   | (189/190) Accurately ripped
 11   | (189/190) Accurately ripped
 12   | (189/190) Accurately ripped
 13   | (189/190) Accurately ripped
 14   | (189/190) Accurately ripped
 15   | (189/190) Accurately ripped
 16   | (189/190) Accurately ripped
 17   | (189/190) Accurately ripped
 18   | (189/190) Accurately ripped
 19   | (189/190) Accurately ripped
 20   | (189/190) Accurately ripped
 21   | (188/190) Accurately ripped
 22   | (189/190) Accurately ripped
 23   | (189/190) Accurately ripped
 24   | (188/190) Accurately ripped
 25   | (188/190) Accurately ripped
 26   | (187/190) Accurately ripped
 27   | (187/190) Accurately ripped
 28   | (188/190) Accurately ripped
 29   | (186/190) Accurately ripped
 30   | (187/190) Accurately ripped
 31   | (188/190) Accurately ripped
 32   | (188/190) Accurately ripped
 33   | (187/190) Accurately ripped
 34   | (186/190) Accurately ripped


==== Log checksum C70F5E7ABC7E6A9511A0B1BE5D089FC17F80E41BCAE91FF10CE5832C0D98C274 ====



Create a new paste based on this one


Comments: