[ create a new paste ] login | about

Link: http://codepad.org/ISwhsEpj    [ raw code | fork ]

Plain Text, pasted on Aug 21:
foobar2000 1.3.17 / Dynamic Range Meter 1.1.1
log date: 2018-08-21 09:50:45

--------------------------------------------------------------------------------
Analyzed: R.E.M. / Reckoning
--------------------------------------------------------------------------------

DR         Peak         RMS     Duration Track
--------------------------------------------------------------------------------
DR8        0.00 dB    -9.70 dB      3:57 01-Harborcoat
DR9        0.00 dB   -11.50 dB      4:15 02-7 Chinese Bros.
DR10       0.00 dB   -11.89 dB      3:16 03-So. Central Rain
DR9        0.00 dB   -10.06 dB      3:53 04-Pretty Pursuasion
DR9        0.00 dB   -11.09 dB      3:34 05-Time After Time (Annelise)
DR9        0.00 dB   -10.35 dB      2:50 06-Second Guessing
DR9        0.00 dB   -11.12 dB      2:59 07-Letter Never Sent
DR8        0.00 dB   -11.40 dB      5:51 08-Camera
DR9        0.00 dB   -10.68 dB      4:33 09-(Don't Go Back To) Rockville
DR9        0.00 dB   -11.43 dB      3:42 10-Little America - Original Album Version
--------------------------------------------------------------------------------

Number of tracks:  10
Official DR value: DR9

Samplerate:        192000 Hz
Channels:          2
Bits per sample:   24
Bitrate:           5795 kbps
Codec:             FLAC
================================================================================




Create a new paste based on this one


Comments: