[ create a new paste ] login | about

Link: http://codepad.org/IXypWFt1    [ raw code | fork ]

Plain Text, pasted on May 11:
foobar2000 1.3.17 / Dynamic Range Meter 1.1.1
log date: 2018-05-10 20:04:39

--------------------------------------------------------------------------------
Analyzed: Deitra Farr / Let It Go!
--------------------------------------------------------------------------------

DR         Peak         RMS     Duration Track
--------------------------------------------------------------------------------
DR8       -0.22 dB   -10.03 dB      5:06 01-Let It Go!
DR7       -0.23 dB   -10.17 dB      5:43 02-Signs, Signals And Warnings
DR8       -0.13 dB   -10.74 dB      4:14 03-It Really Doesn't Matter
DR9       -0.13 dB   -10.64 dB      4:33 04-I'm Through With It
DR8       -0.20 dB    -9.72 dB      5:46 05-When They Really Love You
DR9       -0.28 dB   -12.34 dB      5:57 06-In A Dark Place
DR8       -0.10 dB    -9.32 dB      4:32 07-Don't Hold Me So Tight
DR7       -0.27 dB   -10.01 dB      4:37 08-A Week From Yesterday
DR7       -0.26 dB   -10.16 dB      6:28 09-My Love For You
DR7       -0.23 dB    -9.51 dB      4:56 10-Call Your Wife
DR9       -0.18 dB   -10.15 dB      3:18 11-Thank You For Leaving Me
DR9       -0.20 dB   -10.74 dB      5:04 12-My Turn, My Time
--------------------------------------------------------------------------------

Number of tracks:  12
Official DR value: DR8

Samplerate:        88200 Hz
Channels:          2
Bits per sample:   24
Bitrate:           2893 kbps
Codec:             FLAC
================================================================================




Create a new paste based on this one


Comments: