[ create a new paste ] login | about

Link: http://codepad.org/IZMd81SP    [ raw code | fork ]

Plain Text, pasted on Jul 11:
[CUETools log; Date: 7/11/2018 7:27:49 AM; Version: 2.1.5]
[CTDB TOCID: J_52HXdn8LtnJWQXYIPVn_w4A0Q-] found.
Track | CTDB Status
  1   | (155/161) Accurately ripped
  2   | (155/161) Accurately ripped
  3   | (155/161) Accurately ripped
  4   | (155/161) Accurately ripped
  5   | (155/161) Accurately ripped
  6   | (154/161) Accurately ripped
  7   | (154/161) Accurately ripped
  8   | (154/161) Accurately ripped
  9   | (153/161) Accurately ripped
 10   | (153/161) Accurately ripped
 11   | (149/161) Accurately ripped
[AccurateRip ID: 001b254c-00edf15d-a810210b] found.
Track   [  CRC   |   V2   ] Status
 01     [db89d4fd|dbf0f388] (000+009/161) Accurately ripped
 02     [cdf5c6a2|8232e99e] (000+009/158) Accurately ripped
 03     [efada5b0|e84c72ef] (000+009/158) Accurately ripped
 04     [bc60f726|cfffa82e] (000+009/159) Accurately ripped
 05     [d25c782d|e2ec18b6] (000+009/160) Accurately ripped
 06     [db24c11e|3b21b6cf] (000+009/159) Accurately ripped
 07     [99c3c0be|08842a1f] (000+009/160) Accurately ripped
 08     [dab854dd|3c033c98] (000+009/160) Accurately ripped
 09     [5df53942|6a76d94e] (000+009/160) Accurately ripped
 10     [b483fdda|3099d4f3] (000+009/160) Accurately ripped
 11     [b462dca9|75e1f100] (000+009/157) Accurately ripped
Offsetted by -1325:
 01     [ad94e0ca] (004/161) Accurately ripped
 02     [d883f171] (003/158) Accurately ripped
 03     [11ae191b] (003/158) Accurately ripped
 04     [f55df31a] (003/159) Accurately ripped
 05     [4f34ff5a] (003/160) Accurately ripped
 06     [23ff70a0] (004/159) Accurately ripped
 07     [770edff5] (004/160) Accurately ripped
 08     [6f996009] (004/160) Accurately ripped
 09     [a258c42f] (004/160) Accurately ripped
 10     [36a462fb] (004/160) Accurately ripped
 11     [147bea43] (003/157) Accurately ripped
Offsetted by -661:
 01     [09f1964f] (024/161) Accurately ripped
 02     [92e0d501] (024/158) Accurately ripped
 03     [1dfbc67a] (024/158) Accurately ripped
 04     [145617b1] (024/159) Accurately ripped
 05     [178559fb] (024/160) Accurately ripped
 06     [2f2fc6b8] (024/159) Accurately ripped
 07     [8b7622c2] (024/160) Accurately ripped
 08     [aa9ef25b] (024/160) Accurately ripped
 09     [93c1bd5c] (024/160) Accurately ripped
 10     [239bb003] (024/160) Accurately ripped
 11     [2f18ff13] (024/157) Accurately ripped
Offsetted by -653:
 01     [ca0fe574] (008/161) Accurately ripped
 02     [bddb0442] (007/158) Accurately ripped
 03     [7105f228] (007/158) Accurately ripped
 04     [4b06c0a3] (007/159) Accurately ripped
 05     [87ccc97d] (008/160) Accurately ripped
 06     [aeb03d00] (007/159) Accurately ripped
 07     [545c46ae] (007/160) Accurately ripped
 08     [f79217c4] (007/160) Accurately ripped
 09     [9f4bb1c7] (008/160) Accurately ripped
 10     [c3c3addb] (007/160) Accurately ripped
 11     [bd4c3d03] (006/157) Accurately ripped
Offsetted by -6:
 01     [978f8a91] (002/161) Accurately ripped
 02     [bf8f56b4] (002/158) Accurately ripped
 03     [6e3cf0f0] (002/158) Accurately ripped
 04     [c5d60b26] (002/159) Accurately ripped
 05     [d59d87b0] (002/160) Accurately ripped
 06     [fc8dfd4d] (002/159) Accurately ripped
 07     [b7780f10] (002/160) Accurately ripped
 08     [216dfa9f] (002/160) Accurately ripped
 09     [577d9296] (002/160) Accurately ripped
 10     [fc65ff78] (002/160) Accurately ripped
 11     [89bc6e35] (002/157) Accurately ripped
Offsetted by 6:
 01     [eefb3c27] (006/161) Accurately ripped
 02     [124ebbf2] (006/158) Accurately ripped
 03     [71ed52e0] (006/158) Accurately ripped
 04     [25dc3637] (006/159) Accurately ripped
 05     [09a075e4] (006/160) Accurately ripped
 06     [ba6c8594] (006/159) Accurately ripped
 07     [62dc6e66] (006/160) Accurately ripped
 08     [d65ee8cf] (006/160) Accurately ripped
 09     [7783e3d0] (006/160) Accurately ripped
 10     [6ca1fc3c] (006/160) Accurately ripped
 11     [df094b1d] (006/157) Accurately ripped
Offsetted by 11:
 01     [718eff65] (003/161) Accurately ripped
 02     [485a0d09] (003/158) Accurately ripped
 03     [85ef0430] (003/158) Accurately ripped
 04     [5ff01723] (003/159) Accurately ripped
 05     [db73e761] (003/160) Accurately ripped
 06     [4a3ed420] (003/159) Accurately ripped
 07     [1315e7f6] (003/160) Accurately ripped
 08     [b4fa873b] (003/160) Accurately ripped
 09     [66ea7614] (003/160) Accurately ripped
 10     [b0bafae3] (003/160) Accurately ripped
 11     [d7e951d3] (003/157) Accurately ripped
Offsetted by 16:
 01     [3c7a1247] (004/161) Accurately ripped
 02     [6174f09a] (004/158) Accurately ripped
 03     [972ead82] (004/158) Accurately ripped
 04     [cb649508] (004/159) Accurately ripped
 05     [8a057d37] (004/160) Accurately ripped
 06     [da1922a2] (004/159) Accurately ripped
 07     [55d1632a] (004/160) Accurately ripped
 08     [64ae53ea] (004/160) Accurately ripped
 09     [519c0b95] (004/160) Accurately ripped
 10     [f4d3f98a] (004/160) Accurately ripped
 11     [d0c95889] (004/157) Accurately ripped
Offsetted by 675:
 01     [3f254a60] (019/161) Accurately ripped
 02     [faaf0356] (018/158) Accurately ripped
 03     [32a17190] (019/158) Accurately ripped
 04     [5aab3af3] (019/159) Accurately ripped
 05     [0d2d6797] (019/160) Accurately ripped
 06     [e6963b82] (019/159) Accurately ripped
 07     [d79fd050] (019/160) Accurately ripped
 08     [33386b0f] (019/160) Accurately ripped
 09     [e1451ed6] (019/160) Accurately ripped
 10     [9db247eb] (019/160) Accurately ripped
 11     [f28666a3] (019/157) Accurately ripped
Offsetted by -655:
 01     [c752549c] (000/161) No match (V2 was not tested)
 02     [58cd791b] (000/158) No match (V2 was not tested)
 03     [9bcfe761] (000/158) No match (V2 was not tested)
 04     [546f9926] (000/159) No match (V2 was not tested)
 05     [89affdbb] (000/160) No match (V2 was not tested)
 06     [0f045f75] (000/159) No match (V2 was not tested)
 07     [ce625518] (000/160) No match (V2 was not tested)
 08     [916ba5ed] (000/160) No match (V2 was not tested)
 09     [1b0773c0] (000/160) No match (V2 was not tested)
 10     [dbb9ae65] (000/160) No match (V2 was not tested)
 11     [59bf6d87] (000/157) No match (V2 was not tested)

Track Peak [ CRC32  ] [W/O NULL] [  LOG   ]
 --   89.3 [4DD73A9F] [4E27F89D]   CRC32   
 01   50.6 [053D1C3D] [66424E36]           
 02   89.3 [DEC7F068] [FF2C6446]           
 03   89.3 [263A6E52] [5CB8D3A7]           
 04   89.3 [B33D2636] [B4C57018]           
 05   51.5 [F5C26051] [30896582]           
 06   89.3 [D0CA3B49] [5678ADB2]           
 07   89.3 [EB371C68] [FBA8C1F8]           
 08   89.3 [FB7BB74E] [9183E45B]           
 09   89.3 [91D7ED7C] [6CC38D94]           
 10   89.3 [592BF2E1] [CFAE6F8D]           
 11   89.3 [9DA82E42] [95DF8CF0]           



Create a new paste based on this one


Comments: