[ create a new paste ] login | about

Link: http://codepad.org/IcVphH4z    [ raw code | fork ]

Plain Text, pasted on Aug 9:
foobar2000 1.4.4 / Dynamic Range Meter 1.1.1
log date: 2019-08-09 11:47:56

--------------------------------------------------------------------------------
Analyzed: The Alan Parsons Project / Eye In The Sky (HDAD 2011)
--------------------------------------------------------------------------------

DR         Peak         RMS     Duration Track
--------------------------------------------------------------------------------
DR12      -1.95 dB   -17.27 dB      1:51 01-Sirius
DR12      -1.32 dB   -16.00 dB      4:41 02-Eye In The Sky
DR11      -0.88 dB   -14.91 dB      4:53 03-Children Of The Moon
DR11      -3.98 dB   -17.98 dB      2:09 04-Gemini
DR11      -0.40 dB   -14.88 dB      7:20 05-Silence And I
DR11      -1.32 dB   -14.73 dB      4:22 06-You're Gonna Get Your Fingers Burned
DR13      -1.58 dB   -17.27 dB      4:53 07-Psychobabble
DR13      -0.84 dB   -15.39 dB      3:35 08-Mammagamma
DR12      -1.27 dB   -15.67 dB      3:55 09-Step By Step
DR11      -2.23 dB   -17.62 dB      5:02 10-Old And Wise
--------------------------------------------------------------------------------

Number of tracks:  10
Official DR value: DR12

Samplerate:        192000 Hz
Channels:          2
Bits per sample:   24
Bitrate:           5406 kbps
Codec:             FLAC
================================================================================




Create a new paste based on this one


Comments: