[ create a new paste ] login | about

Link: http://codepad.org/IdTjFsTT    [ raw code | fork ]

Plain Text, pasted on Jun 30:
Exact Audio Copy V1.3 from 2. September 2016

EAC extraction logfile from 28. June 2017, 19:29

Styx / The Mission

Used drive  : HL-DT-STDVDRAM GU40N   Adapter: 0  ID: 1

Read mode               : Secure
Utilize accurate stream : Yes
Defeat audio cache      : Yes
Make use of C2 pointers : No

Read offset correction                      : 103
Overread into Lead-In and Lead-Out          : No
Fill up missing offset samples with silence : Yes
Delete leading and trailing silent blocks   : No
Null samples used in CRC calculations       : Yes
Used interface                              : Installed external ASPI interface

Used output format              : User Defined Encoder
Selected bitrate                : 128 kBit/s
Quality                         : High
Add ID3 tag                     : No
Command line compressor         : C:\Users\workutagin\Desktop\AudioConverter.exe
Additional command line options : -V -8 -T "Date=%year%" -T "Genre=%genre%" %source%


TOC of the extracted CD

     Track |   Start  |  Length  | Start sector | End sector 
    ---------------------------------------------------------
        1  |  0:00.00 |  1:23.24 |         0    |     6248   
        2  |  1:23.24 |  2:07.74 |      6249    |    15847   
        3  |  3:31.23 |  3:39.47 |     15848    |    32319   
        4  |  7:10.70 |  2:30.09 |     32320    |    43578   
        5  |  9:41.04 |  5:03.58 |     43579    |    66361   
        6  | 14:44.62 |  4:17.36 |     66362    |    85672   
        7  | 19:02.23 |  4:10.16 |     85673    |   104438   
        8  | 23:12.39 |  2:30.53 |    104439    |   115741   
        9  | 25:43.17 |  1:22.37 |    115742    |   121928   
       10  | 27:05.54 |  6:04.22 |    121929    |   149250   
       11  | 33:10.01 |  0:17.50 |    149251    |   150575   
       12  | 33:27.51 |  2:04.20 |    150576    |   159895   
       13  | 35:31.71 |  3:51.05 |    159896    |   177225   
       14  | 39:23.01 |  2:43.25 |    177226    |   189475   


Range status and errors

Selected range

     Filename C:\Users\workutagin\Desktop\Styx - The Mission 2017\Styx - The Mission.wav

     Peak level 100.0 %
     Extraction speed 1.7 X
     Range quality 100.0 %
     Test CRC CE2F2BB8
     Copy CRC CE2F2BB8
     Copy OK

No errors occurred

End of status report

==== Log checksum 1E6E9A547085BFAFF2543D18F7BB2B680554414AF2AC1CD4E5A7C3CC7FA0AB59 ====



Create a new paste based on this one


Comments: