[ create a new paste ] login | about

Link: http://codepad.org/IeiGeUOv    [ raw code | fork ]

Plain Text, pasted on May 8:
foobar2000 1.4.1 / Dynamic Range Meter 1.1.1
log date: 2019-05-07 23:16:57

--------------------------------------------------------------------------------
Analyzed: MILES DAVIS / THE MAN WITH THE HORN
--------------------------------------------------------------------------------

DR         Peak         RMS     Duration Track
--------------------------------------------------------------------------------
DR14      -0.01 dB   -15.81 dB      9:56 01-FAT TIME
DR13      -1.71 dB   -17.68 dB     11:15 02-BACK SEAT BETTY
DR12      -2.47 dB   -16.37 dB      5:46 03-SHOUT
DR13      -1.25 dB   -16.18 dB      8:10 04-A╧DA
DR13      -0.99 dB   -16.89 dB      6:32 05-THE MAN WITH THE HORN
DR13      -2.68 dB   -17.99 dB     10:45 06-URSULA
--------------------------------------------------------------------------------

Number of tracks:  6
Official DR value: DR13

Samplerate:        88200 Hz
Channels:          2
Bits per sample:   24
Bitrate:           2718 kbps
Codec:             FLAC
================================================================================




Create a new paste based on this one


Comments: