[ create a new paste ] login | about

Link: http://codepad.org/If7DbaQZ    [ raw code | fork ]

Plain Text, pasted on May 13:
foobar2000 1.3.14 / Dynamic Range Meter 1.1.1
log date: 2017-05-13 08:57:05

--------------------------------------------------------------------------------
Analyzed: FRANK SINATRA / Songs for Swingin' Lovers
--------------------------------------------------------------------------------

DR         Peak         RMS     Duration Track
--------------------------------------------------------------------------------
DR12      -6.58 dB   -22.09 dB      2:56 01-You Make Me Feel So Young
DR13      -6.57 dB   -22.21 dB      2:36 02-It Happened In Monterey
DR13      -6.82 dB   -22.91 dB      2:19 03-You're Getting To Be A Habit With Me
DR12      -6.54 dB   -22.17 dB      2:47 04-You Brought A New Kind Of Love To Me
DR12      -6.43 dB   -21.71 dB      2:29 05-Too Marvelous For Words
DR13      -6.63 dB   -22.25 dB      3:56 06-Old Devil Moon
DR13      -6.60 dB   -22.24 dB      2:43 07-Pennies From Heaven
DR11      -6.50 dB   -20.32 dB      2:41 08-Love Is Here To Stay
DR13      -6.60 dB   -23.20 dB      3:44 09-I've Got You Under My Skin
DR12      -6.88 dB   -21.24 dB      2:30 10-I Thought About You
DR13      -6.49 dB   -22.26 dB      4:26 11-We'll Be Together Again
DR14      -6.52 dB   -23.35 dB      3:07 12-Makin' Whoopee
DR13      -7.21 dB   -22.52 dB      2:54 13-Swingin' Down The Lane
DR14      -6.56 dB   -23.38 dB      2:43 14-Anything Goes
DR13      -6.51 dB   -22.42 dB      2:44 15-How About You?
--------------------------------------------------------------------------------

Number of tracks:  15
Official DR value: DR13

Samplerate:        2822400 Hz / PCM Samplerate: 88200 Hz
Channels:          2
Bits per sample:   1
Bitrate:           5645 kbps
Codec:             DSD64
================================================================================




Create a new paste based on this one


Comments: