[ create a new paste ] login | about

Link: http://codepad.org/IfVeBlkz    [ raw code | fork ]

Plain Text, pasted on Aug 4:
Exact Audio Copy V0.99 prebeta 5 from 4. May 2009

EAC extraction logfile from 4. February 2011, 22:25

Iggy Pop / A Million in prizes - The anthology - CD1 Japan (VJCP-68753)

Used drive  : HL-DT-STDVDRAM GSA-H10A   Adapter: 3  ID: 0

Read mode               : Secure
Utilize accurate stream : Yes
Defeat audio cache      : Yes
Make use of C2 pointers : No

Read offset correction                      : 667
Overread into Lead-In and Lead-Out          : No
Fill up missing offset samples with silence : Yes
Delete leading and trailing silent blocks   : No
Null samples used in CRC calculations       : Yes
Used interface                              : Native Win32 interface for Win NT & 2000

Used output format              : Monkey's Audio Lossless Encoder
Selected bitrate                : High Lossless Compression
Quality                         : High
Add ID3 tag                     : Yes
Command line compressor         : C:\Archivos de programa\Monkey's Audio\MAC.exe


TOC of the extracted CD

     Track |   Start  |  Length  | Start sector | End sector 
    ---------------------------------------------------------
        1  |  0:00.00 |  4:05.72 |         0    |    18446   
        2  |  4:05.72 |  5:15.13 |     18447    |    42084   
        3  |  9:21.10 |  3:09.00 |     42085    |    56259   
        4  | 12:30.10 |  3:43.17 |     56260    |    73001   
        5  | 16:13.27 |  3:22.25 |     73002    |    88176   
        6  | 19:35.52 |  2:44.24 |     88177    |   100500   
        7  | 22:20.01 |  6:52.41 |    100501    |   131441   
        8  | 29:12.42 |  3:29.25 |    131442    |   147141   
        9  | 32:41.67 |  3:33.60 |    147142    |   163176   
       10  | 36:15.52 |  4:16.48 |    163177    |   182424   
       11  | 40:32.25 |  2:29.47 |    182425    |   193646   
       12  | 43:01.72 |  4:15.58 |    193647    |   212829   
       13  | 47:17.55 |  2:54.40 |    212830    |   225919   
       14  | 50:12.20 |  5:08.60 |    225920    |   249079   
       15  | 55:21.05 |  4:20.70 |    249080    |   268649   
       16  | 59:42.00 |  3:38.45 |    268650    |   285044   
       17  | 63:20.45 |  4:24.32 |    285045    |   304876   
       18  | 67:45.02 |  5:12.03 |    304877    |   328279   
       19  | 72:57.05 |  4:40.67 |    328280    |   349346   


Range status and errors

Selected range

     Filename D:\Para llevar\Iggy Pop\Iggy Pop - A Million in prizes - The anthology - CD1 Japan (VJCP-68753).wav

     Peak level 98.8 %
     Range quality 100.0 %
     Copy CRC CF3931ED
     Copy OK

No errors occurred

 
AccurateRip summary
 
Track  1  not present in database
Track  2  not present in database
Track  3  not present in database
Track  4  not present in database
Track  5  not present in database
Track  6  not present in database
Track  7  not present in database
Track  8  not present in database
Track  9  not present in database
Track 10  not present in database
Track 11  not present in database
Track 12  not present in database
Track 13  not present in database
Track 14  not present in database
Track 15  not present in database
Track 16  not present in database
Track 17  not present in database
Track 18  not present in database
Track 19  not present in database
 
None of the tracks are present in the AccurateRip database

End of status report



Create a new paste based on this one


Comments: