[ create a new paste ] login | about

Link: http://codepad.org/IgrEvDQJ    [ raw code | fork ]

Plain Text, pasted on May 14:
foobar2000 1.3.17 / Dynamic Range Meter 1.1.1
log date: 2018-05-14 11:48:00

--------------------------------------------------------------------------------
Analyzed: Pete Townshend / The Iron Man: The Musical By Pete Townshend 
--------------------------------------------------------------------------------

DR         Peak         RMS     Duration Track
--------------------------------------------------------------------------------
DR8        0.00 dB   -11.22 dB      4:51 01-I Won't Run Anymore
DR9        0.00 dB   -10.97 dB      3:32 02-Over The Top
DR12       0.00 dB   -16.14 dB      0:42 03-Man Machines
DR9        0.00 dB   -11.03 dB      4:09 04-Dig
DR10       0.00 dB   -11.89 dB      4:49 05-A Friend Is A Friend
DR9        0.00 dB   -11.73 dB      4:00 06-I Eat Heavy Metal
DR7        0.00 dB    -9.91 dB      4:03 07-All Shall Be Well
DR9        0.00 dB   -10.60 dB      4:20 08-Was There Life
DR9        0.00 dB    -9.75 dB      4:26 09-Fast Food
DR9        0.00 dB   -12.78 dB      2:52 10-A Fool Says
DR8        0.00 dB    -9.30 dB      3:49 11-Fire
DR8        0.00 dB   -10.32 dB      6:03 12-New Life
--------------------------------------------------------------------------------

Number of tracks:  12
Official DR value: DR9

Samplerate:        96000 Hz
Channels:          2
Bits per sample:   24
Bitrate:           3094 kbps
Codec:             FLAC
================================================================================




Create a new paste based on this one


Comments: