[ create a new paste ] login | about

Link: http://codepad.org/In6ENX6H    [ raw code | fork ]

Plain Text, pasted on Dec 21:
foobar2000 1.6 / Dynamic Range Meter 1.1.1
log date: 2020-12-21 22:32:19

--------------------------------------------------------------------------------
Analyzed: Vince Guaraldi Trio / A Charlie Brown Christmas
--------------------------------------------------------------------------------

DR         Peak         RMS     Duration Track
--------------------------------------------------------------------------------
DR12      -3.66 dB   -17.94 dB      5:05 01-O Tannenbaum
DR12      -3.81 dB   -18.44 dB      2:21 02-What Child Is This
DR11      -3.69 dB   -19.61 dB      3:09 03-My Little Drum
DR12      -3.48 dB   -17.69 dB      3:03 04-Linus And Lucy
DR13      -3.96 dB   -20.60 dB      6:02 05-Christmas Time Is Here (instrumental)
DR12      -3.70 dB   -19.98 dB      2:43 06-Christmas Time Is Here (vocal)
DR12      -3.90 dB   -18.59 dB      2:23 07-Skating
DR11      -5.44 dB   -20.09 dB      1:52 08-Hark, The Herald Angels Sing
DR12      -4.21 dB   -18.84 dB      3:22 09-Christmas Time Is Coming
DR10      -7.62 dB   -24.21 dB      1:04 10-Für Elise
DR13      -5.24 dB   -22.15 dB      3:15 11-The Christmas Song
DR12      -3.69 dB   -19.28 dB      5:26 12-Greensleeves
--------------------------------------------------------------------------------

Number of tracks:  12
Official DR value: DR12

Samplerate:        2822400 Hz / PCM Samplerate: 176400 Hz
Channels:          2
Bits per sample:   1
Bitrate:           5645 kbps
Codec:             DSD64
================================================================================




Create a new paste based on this one


Comments: