[ create a new paste ] login | about

Link: http://codepad.org/Is2v1ASy    [ raw code | fork ]

Plain Text, pasted on Dec 29:
[CUETools log; Date: 12/29/2016 1:22:37 PM; Version: 2.1.5]
[CTDB TOCID: NTmxdla4t3kX8P_xKTTmE3deXMI-] found.
Track | CTDB Status
  1   | (45/47) Accurately ripped
  2   | (46/47) Accurately ripped
  3   | (47/47) Accurately ripped
  4   | (46/47) Accurately ripped
  5   | (47/47) Accurately ripped
  6   | (47/47) Accurately ripped
  7   | (45/47) Accurately ripped
  8   | (47/47) Accurately ripped
  9   | (45/47) Accurately ripped
 10   | (46/47) Accurately ripped
 11   | (46/47) Accurately ripped
 12   | (46/47) Accurately ripped
 13   | (47/47) Accurately ripped
 14   | (46/47) Accurately ripped
 15   | (46/47) Accurately ripped
 16   | (47/47) Accurately ripped
 17   | (46/47) Accurately ripped
 18   | (46/47) Accurately ripped
 19   | (46/47) Accurately ripped
 20   | (42/47) Accurately ripped
 21   | (41/47) Accurately ripped
[AccurateRip ID: 003ac84a-0386e24c-27126315] found.
Track   [  CRC   |   V2   ] Status
 01     [b997ed98|2e6d8bb5] (02+09/68) Accurately ripped
 02     [5ecf28d7|ef134369] (02+09/68) Accurately ripped
 03     [005bb9cf|d92afa6c] (02+09/68) Accurately ripped
 04     [4cf2a87b|59fd5966] (02+09/68) Accurately ripped
 05     [03e8aca2|21489eb5] (02+09/68) Accurately ripped
 06     [cf12c7f5|1d483ed3] (02+09/69) Accurately ripped
 07     [f67517ed|34d3be3a] (02+09/69) Accurately ripped
 08     [581a2f7a|2e20a618] (02+09/68) Accurately ripped
 09     [9453d63f|56912ac6] (02+09/69) Accurately ripped
 10     [51daa0dd|1fd686b2] (02+09/68) Accurately ripped
 11     [25421dab|6cf4ea4f] (02+09/67) Accurately ripped
 12     [3fed0b6a|d52369a1] (02+09/68) Accurately ripped
 13     [5f30521e|efd49eb0] (02+09/66) Accurately ripped
 14     [07d92536|3d62470f] (02+09/69) Accurately ripped
 15     [38c384f0|23ea452d] (02+09/67) Accurately ripped
 16     [4d167d2e|cf1de9fc] (02+09/68) Accurately ripped
 17     [c2cfcad1|4ff925ef] (02+09/68) Accurately ripped
 18     [6c178e39|42ad5688] (02+09/67) Accurately ripped
 19     [c4838bb8|35126cac] (02+09/67) Accurately ripped
 20     [56b239c7|3d0ffefb] (02+09/67) Accurately ripped
 21     [f604acb2|60c7055e] (02+09/65) Accurately ripped
Offsetted by -1964:
 01     [b861e8a8] (02/68) Accurately ripped
 02     [6c5451c3] (02/68) Accurately ripped
 03     [ab984583] (02/68) Accurately ripped
 04     [9ea07133] (02/68) Accurately ripped
 05     [69dbd56e] (02/68) Accurately ripped
 06     [8ce80dc9] (02/69) Accurately ripped
 07     [8542f0a1] (02/69) Accurately ripped
 08     [0f9afd16] (02/68) Accurately ripped
 09     [73bf55bb] (02/69) Accurately ripped
 10     [bdfdec91] (02/68) Accurately ripped
 11     [4d03b1a7] (02/67) Accurately ripped
 12     [4c594276] (02/68) Accurately ripped
 13     [f8043dce] (02/66) Accurately ripped
 14     [4049aa66] (02/69) Accurately ripped
 15     [8c3e9a28] (02/67) Accurately ripped
 16     [eac0c78e] (02/68) Accurately ripped
 17     [aa833185] (02/68) Accurately ripped
 18     [968d0911] (02/67) Accurately ripped
 19     [c1da93b0] (02/67) Accurately ripped
 20     [e0f3910f] (02/67) Accurately ripped
 21     [638f3544] (02/65) Accurately ripped
Offsetted by -1305:
 01     [ddcea004] (12/68) Accurately ripped
 02     [ccae4960] (12/68) Accurately ripped
 03     [b139c9fe] (12/68) Accurately ripped
 04     [77bff075] (12/68) Accurately ripped
 05     [cc57ccd3] (12/68) Accurately ripped
 06     [1cfb57fc] (12/69) Accurately ripped
 07     [0a86bbdc] (12/69) Accurately ripped
 08     [2d2514e7] (12/68) Accurately ripped
 09     [e02da4d4] (12/69) Accurately ripped
 10     [c433410c] (12/68) Accurately ripped
 11     [d592a4a0] (12/67) Accurately ripped
 12     [4cbe12cb] (12/68) Accurately ripped
 13     [d6dada42] (12/66) Accurately ripped
 14     [9ec0537a] (12/69) Accurately ripped
 15     [876f5f4a] (12/67) Accurately ripped
 16     [870e49b6] (12/68) Accurately ripped
 17     [4eb0b540] (12/68) Accurately ripped
 18     [f950800b] (11/67) Accurately ripped
 19     [34ab41a2] (12/67) Accurately ripped
 20     [733689cd] (12/67) Accurately ripped
 21     [7eee27fe] (12/65) Accurately ripped
Offsetted by -1254:
 01     [1b5cabe0] (09/68) Accurately ripped
 02     [0d3dfd5d] (09/68) Accurately ripped
 03     [44808f19] (10/68) Accurately ripped
 04     [9fdc6777] (09/68) Accurately ripped
 05     [cfb10798] (09/68) Accurately ripped
 06     [7dfbabcf] (09/69) Accurately ripped
 07     [201aefb7] (09/69) Accurately ripped
 08     [a777a298] (09/68) Accurately ripped
 09     [fa0d00cd] (09/69) Accurately ripped
 10     [f093d627] (09/68) Accurately ripped
 11     [1b302879] (09/67) Accurately ripped
 12     [95ce0880] (09/68) Accurately ripped
 13     [bbd0a836] (09/66) Accurately ripped
 14     [98da9a0e] (10/69) Accurately ripped
 15     [aa06602c] (09/67) Accurately ripped
 16     [839d06de] (10/68) Accurately ripped
 17     [b6af919b] (09/68) Accurately ripped
 18     [3df277c5] (09/67) Accurately ripped
 19     [22c01154] (09/67) Accurately ripped
 20     [5ead8acb] (09/67) Accurately ripped
 21     [c24c8fee] (09/65) Accurately ripped
Offsetted by 18:
 01     [a2246a40] (05/68) Accurately ripped
 02     [ee10efe5] (05/68) Accurately ripped
 03     [8eb0f051] (04/68) Accurately ripped
 04     [a6661dc7] (05/68) Accurately ripped
 05     [8c9ec160] (05/68) Accurately ripped
 06     [f14f21c7] (05/69) Accurately ripped
 07     [0d21deef] (05/69) Accurately ripped
 08     [470a2540] (05/68) Accurately ripped
 09     [15edf6b5] (05/69) Accurately ripped
 10     [d9fcb75f] (05/68) Accurately ripped
 11     [a73d7961] (05/67) Accurately ripped
 12     [f04d07c8] (05/68) Accurately ripped
 13     [46962256] (05/66) Accurately ripped
 14     [05c44d2e] (05/69) Accurately ripped
 15     [35e9c17c] (05/67) Accurately ripped
 16     [c457ed1e] (05/68) Accurately ripped
 17     [23c054d3] (05/68) Accurately ripped
 18     [deab12d5] (05/67) Accurately ripped
 19     [2799f324] (04/67) Accurately ripped
 20     [1336947b] (05/67) Accurately ripped
 21     [97918e41] (05/65) Accurately ripped
Offsetted by -36:
 01     [e87ef448] (00/68) No match (V2 was not tested)
 02     [404b9abb] (00/68) No match (V2 was not tested)
 03     [e3b14ccb] (00/68) No match (V2 was not tested)
 04     [9a0bbde3] (00/68) No match (V2 was not tested)
 05     [f27c8326] (00/68) No match (V2 was not tested)
 06     [8a9a1451] (00/69) No match (V2 was not tested)
 07     [c91b89e9] (00/69) No match (V2 was not tested)
 08     [7a3a43ee] (00/68) No match (V2 was not tested)
 09     [911f9553] (00/69) No match (V2 was not tested)
 10     [419673d9] (00/68) No match (V2 was not tested)
 11     [214b663f] (00/67) No match (V2 was not tested)
 12     [df2d12ae] (00/68) No match (V2 was not tested)
 13     [9064b1ae] (00/66) No match (V2 was not tested)
 14     [0c02d546] (00/69) No match (V2 was not tested)
 15     [3e770bd8] (00/67) No match (V2 was not tested)
 16     [5e939d4e] (00/68) No match (V2 was not tested)
 17     [00eeb6cd] (00/68) No match (V2 was not tested)
 18     [86f08501] (00/67) No match (V2 was not tested)
 19     [fe56bce0] (00/67) No match (V2 was not tested)
 20     [dda9845f] (00/67) No match (V2 was not tested)
 21     [c6fa00b1] (00/65) No match (V2 was not tested)

Track Peak [ CRC32  ] [W/O NULL] [  LOG   ]
 --   99.9 [0F38C0ED] [D7F17C04]   CRC32   
 01   99.9 [EAA19226] [20112EA3]           
 02   77.7 [EBC6730C] [C7421295]           
 03   65.5 [A42786E4] [833358DF]           
 04   60.0 [B47FA17C] [37AE1D55]           
 05   82.3 [3541500A] [5CD0E24F]           
 06   99.9 [92F53CEE] [B34E104E]           
 07   76.9 [05048476] [3B24FCFB]           
 08   87.3 [1E06A1E9] [563C5597]           
 09   87.0 [F1F0DE89] [48DE2BE8]           
 10   99.9 [724AB018] [5CFD44C7]           
 11   87.1 [B84CD610] [EA0F9F93]           
 12   77.6 [A3267B11] [F702F07B]           
 13   72.0 [21260227] [6F26CB81]           
 14   99.9 [4A8476BB] [8602A864]           
 15   69.2 [D22202B0] [2A09DA85]           
 16   75.8 [2ED562A2] [8FC035F0]           
 17   77.8 [6A87F488] [B9AFE676]           
 18   77.9 [F2742D19] [9E3EDC25]           
 19   77.8 [5EFA3B5E] [E75AD82F]           
 20   77.8 [D3328253] [FF95549F]           
 21   73.9 [5982F199] [E2F69BFC]           



Create a new paste based on this one


Comments: