[ create a new paste ] login | about

Link: http://codepad.org/IszGnGhh    [ raw code | fork ]

Plain Text, pasted on Oct 26:
foobar2000 1.6 / Dynamic Range Meter 1.1.1
log date: 2020-10-26 19:04:15

--------------------------------------------------------------------------------
Analyzed: The Guess Who  / American Woman & Share The Land 
--------------------------------------------------------------------------------

DR         Peak         RMS     Duration Track
--------------------------------------------------------------------------------
DR17      -4.53 dB   -21.43 dB      5:11 01-American Woman 
DR7       -3.31 dB   -18.92 dB      3:49 02-No Time 
DR8       -7.75 dB   -26.31 dB      5:10 03-Talisman 
DR7       -2.89 dB   -19.18 dB      5:00 04-No Sugar Tonight / New Mother Nature
DR7       -2.61 dB   -18.18 dB      3:01 05-969 The Oldest Man
DR7       -2.54 dB   -18.48 dB      3:02 06-When Friends Fall Out 
DR7       -2.51 dB   -18.81 dB      3:26 07-8:15
DR7       -2.41 dB   -18.28 dB      5:20 08-Proper Stranger 
DR7       -4.36 dB   -19.68 dB      6:15 09-Humpty's Blues / American Woman 
DR7       -1.74 dB   -16.42 dB      2:58 10-Bus Rider 
DR7       -1.97 dB   -18.10 dB      3:56 11-Do You Miss Me Darlin 
DR7       -2.56 dB   -17.78 dB      3:27 12-Hand Me Down World 
DR7       -2.47 dB   -18.46 dB      2:42 13-Moan for You Joe 
DR6       -2.59 dB   -16.77 dB      3:55 14-Share the Land 
DR7       -1.59 dB   -16.91 dB      4:13 15-Hang On to Your Life 
DR8       -2.90 dB   -20.27 dB      3:57 16-Coming Down Off the Money Bag / Song Of The Dog 
DR6       -1.99 dB   -16.98 dB      8:58 17-Three More Days 
--------------------------------------------------------------------------------

Number of tracks:  17
Official DR value: DR8

Samplerate:        88200 Hz
Channels:          6
Bits per sample:   24
Bitrate:           5626 kbps
Codec:             FLAC
================================================================================




Create a new paste based on this one


Comments: