[ create a new paste ] login | about

Link: http://codepad.org/IyponQb1    [ raw code | fork ]

Plain Text, pasted on Feb 19:
foobar2000 1.4.1 / Dynamic Range Meter 1.1.1
log date: 2019-02-19 09:27:51

--------------------------------------------------------------------------------
Analyzed: Jacintha / Best Of Jacintha
--------------------------------------------------------------------------------

DR         Peak         RMS     Duration Track
--------------------------------------------------------------------------------
DR12      -2.82 dB   -19.49 dB      4:12 01-The Look Of Love
DR14      -1.60 dB   -19.16 dB      5:31 02-Willow Weep For Me
DR13      -0.69 dB   -16.92 dB      3:31 03-And The Angels Sing
DR13      -0.33 dB   -17.15 dB      5:43 04-California Dreaming
DR14      -0.37 dB   -17.60 dB      4:32 05-O Ganso
DR14      -0.01 dB   -16.83 dB      5:20 06-A Man & A Woman
DR14      -0.03 dB   -19.08 dB      6:07 07-Something Cool
DR14      -0.38 dB   -19.81 dB      6:12 08-Mahna Da Carnevale
DR16      -0.16 dB   -20.79 dB      7:46 09-Autumn Leaves
DR13      -2.93 dB   -18.14 dB      3:43 10-Once I Loved
DR13      -1.49 dB   -18.12 dB      4:03 11-Light My Fire
DR14      -0.88 dB   -20.20 dB      4:57 12-Boulevard Of Broken Dreams
DR15      -0.16 dB   -19.72 dB      6:16 13-Windmills Of Your Mind
DR15      -0.22 dB   -18.27 dB      4:11 14-Waters Of March
DR13      -1.70 dB   -20.15 dB      7:24 15-Danny Boy
--------------------------------------------------------------------------------

Number of tracks:  15
Official DR value: DR14

Samplerate:        88200 Hz
Channels:          2
Bits per sample:   24
Bitrate:           2460 kbps
Codec:             FLAC
================================================================================




Create a new paste based on this one


Comments: