[ create a new paste ] login | about

Link: http://codepad.org/J1ixzrjY    [ raw code | fork ]

Plain Text, pasted on Mar 1:
foobar2000 1.3.10 / Dynamic Range Meter 1.1.1
log date: 2017-02-28 17:17:26

--------------------------------------------------------------------------------
Analyzed: Anderson East / Fifty Shades Darker (Original Motion Picture Soundtrack) (1)
          Corinne Bailey Rae / Fifty Shades Darker (Original Motion Picture Soundtrack) (2)
          Danny Elfman / Fifty Shades Darker (Original Motion Picture Soundtrack) (3-4)
          Frances / Fifty Shades Darker (Original Motion Picture Soundtrack) (5)
          Halsey / Fifty Shades Darker (Original Motion Picture Soundtrack) (6)
          John Legend / Fifty Shades Darker (Original Motion Picture Soundtrack) (7)
          José James / Fifty Shades Darker (Original Motion Picture Soundtrack) (8)
          Joseph Angel / Fifty Shades Darker (Original Motion Picture Soundtrack) (9)
          JP Cooper / Fifty Shades Darker (Original Motion Picture Soundtrack) (10)
          JRY / Fifty Shades Darker (Original Motion Picture Soundtrack) (11)
          Kygo / Fifty Shades Darker (Original Motion Picture Soundtrack) (12)
          Nick Jonas & Nicki Minaj / Fifty Shades Darker (Original Motion Picture Soundtrack) (13)
          Sia / Fifty Shades Darker (Original Motion Picture Soundtrack) (14)
          The Avener / Fifty Shades Darker (Original Motion Picture Soundtrack) (15)
          The-Dream / Fifty Shades Darker (Original Motion Picture Soundtrack) (16)
          Toulouse / Fifty Shades Darker (Original Motion Picture Soundtrack) (17)
          Tove Lo / Fifty Shades Darker (Original Motion Picture Soundtrack) (18)
          ZAYN & Taylor Swift / Fifty Shades Darker (Original Motion Picture Soundtrack) (19)
--------------------------------------------------------------------------------

DR         Peak         RMS     Duration Track
--------------------------------------------------------------------------------
DR7        0.00 dB    -8.95 dB      3:59 16-What Would It Take
DR8       -0.21 dB   -10.77 dB      3:16 11-The Scientist
DR7       -0.25 dB   -10.72 dB      2:50 18-On His Knees
DR7       -0.32 dB   -10.70 dB      2:09 19-Making It Real
DR7       -0.13 dB   -11.43 dB      4:08 17-What Is Love?
DR6        0.00 dB    -9.24 dB      3:47 02-Not Afraid Anymore
DR7        0.00 dB    -7.93 dB      4:05 06-One Woman Man
DR8        0.00 dB   -10.44 dB      2:05 12-They Can’t Take That Away from Me
DR6        0.00 dB    -7.92 dB      3:51 15-Empty Pack of Cigarettes
DR5        0.00 dB    -7.40 dB      3:22 13-Birthday
DR6        0.00 dB    -8.69 dB      3:21 03-Pray (feat. Rooty)
DR5        0.00 dB    -7.31 dB      3:44 10-Cruise (feat. Andrew Jackson)
DR7        0.00 dB    -8.85 dB      3:35 08-Bom Bidi Bom
DR6        0.00 dB    -8.31 dB      4:12 09-Helium
DR6        0.00 dB    -7.36 dB      3:48 14-I Need a Good One (feat. Mark Asari)
DR6        0.00 dB    -8.04 dB      4:45 07-Code Blue
DR6        0.00 dB    -8.37 dB      3:12 05-No Running from Me
DR5        0.00 dB    -8.19 dB      3:41 04-Lies in the Dark
DR5        0.00 dB    -7.50 dB      4:06 01-I Don’t Wanna Live Forever
--------------------------------------------------------------------------------

Number of tracks:  19
Official DR value: DR6

Samplerate:        44100 Hz
Channels:          2
Bits per sample:   16
Bitrate:           873 kbps
Codec:             FLAC
================================================================================




Create a new paste based on this one


Comments: