[ create a new paste ] login | about

Link: http://codepad.org/J2wFzt0P    [ raw code | fork ]

Plain Text, pasted on Sep 6:
2015 5.1 Surround Mix

foobar2000 1.4.6 / Dynamic Range Meter 1.1.1
log date: 2019-09-05 22:40:46

--------------------------------------------------------------------------------
Analyzed: XTC / Oranges & Lemons (2015 Remix)
--------------------------------------------------------------------------------

DR         Peak         RMS     Duration Track
--------------------------------------------------------------------------------
DR12      -0.10 dB   -16.93 dB      5:08 01-Garden Of Earthly Delights
DR12      -0.10 dB   -17.80 dB      4:01 02-The Mayor Of Simpleton
DR13      -0.10 dB   -18.07 dB      3:43 03-King For A Day
DR14      -0.24 dB   -19.34 dB      3:37 04-Here Comes President Kill Again
DR12      -0.10 dB   -17.09 dB      4:19 05-The Loving
DR14      -0.10 dB   -18.93 dB      3:29 06-Poor Skeleton Steps Out
DR12      -0.10 dB   -17.65 dB      4:39 07-One Of The Millions
DR14      -0.10 dB   -18.40 dB      4:15 08-Scarecrow People
DR12      -0.10 dB   -16.64 dB      3:29 09-Merely A Man
DR13      -0.10 dB   -18.79 dB      3:21 10-Cynical Days
DR14      -0.10 dB   -17.34 dB      4:53 11-Across This Antheap
DR13      -0.10 dB   -17.89 dB      3:53 12-Hold Me My Daddy
DR14      -0.10 dB   -18.74 dB      3:57 13-Pink Thing
DR13      -0.09 dB   -16.81 dB      4:09 14-Miniature Sun
DR12      -0.10 dB   -19.58 dB      5:10 15-Chalkhills And Children
--------------------------------------------------------------------------------

Number of tracks:  15
Official DR value: DR13

Samplerate:        96000 Hz
Channels:          6
Bits per sample:   24
Bitrate:           7403 kbps
Codec:             FLAC
================================================================================

=========================================================================================================================================================

2015 Stereo Instrumental Mix

foobar2000 1.4.6 / Dynamic Range Meter 1.1.1
log date: 2019-09-05 22:41:06

--------------------------------------------------------------------------------
Analyzed: XTC / Oranges & Lemons (2015 Remix)
--------------------------------------------------------------------------------

DR         Peak         RMS     Duration Track
--------------------------------------------------------------------------------
DR11      -0.10 dB   -12.46 dB      5:09 01-Garden Of Earthly Delights
DR12      -0.10 dB   -13.48 dB      4:01 02-The Mayor Of Simpleton
DR12      -0.10 dB   -13.58 dB      3:43 03-King For A Day
DR12      -0.10 dB   -14.68 dB      3:37 04-Here Comes President Kill Again
DR10      -0.10 dB   -12.39 dB      4:19 05-The Loving
DR11      -0.10 dB   -12.36 dB      3:29 06-Poor Skeleton Steps Out
DR12      -0.10 dB   -13.74 dB      4:39 07-One Of The Millions
DR12      -0.10 dB   -13.09 dB      4:15 08-Scarecrow People
DR10      -0.10 dB   -11.47 dB      3:29 09-Merely A Man
DR11      -0.10 dB   -13.14 dB      3:21 10-Cynical Days
DR12      -0.10 dB   -13.98 dB      4:53 11-Across This Antheap
DR10      -0.10 dB   -12.01 dB      3:53 12-Hold Me My Daddy
DR12      -0.10 dB   -12.99 dB      3:57 13-Pink Thing
DR10      -0.10 dB   -10.75 dB      4:09 14-Miniature Sun
DR11      -0.10 dB   -13.54 dB      5:09 15-Chalkhills And Children
--------------------------------------------------------------------------------

Number of tracks:  15
Official DR value: DR11

Samplerate:        96000 Hz
Channels:          2
Bits per sample:   24
Bitrate:           3069 kbps
Codec:             FLAC
================================================================================

=========================================================================================================================================================

2015 Stereo Mix

foobar2000 1.4.6 / Dynamic Range Meter 1.1.1
log date: 2019-09-05 22:41:27

--------------------------------------------------------------------------------
Analyzed: XTC / Oranges & Lemons (2015 Remix)
--------------------------------------------------------------------------------

DR         Peak         RMS     Duration Track
--------------------------------------------------------------------------------
DR10      -0.10 dB   -11.30 dB      5:09 Title1-Chapter 01
DR11      -0.10 dB   -11.99 dB      4:01 Title1-Chapter 02
DR10      -0.10 dB   -12.24 dB      3:43 Title1-Chapter 03
DR10      -0.10 dB   -13.08 dB      3:37 Title1-Chapter 04
DR9       -0.10 dB   -11.04 dB      4:19 Title1-Chapter 05
DR10      -0.10 dB   -11.53 dB      3:29 Title1-Chapter 06
DR10      -0.10 dB   -12.21 dB      4:39 Title1-Chapter 07
DR10      -0.10 dB   -11.58 dB      4:15 Title1-Chapter 08
DR9       -0.10 dB    -9.89 dB      3:29 Title1-Chapter 09
DR10      -0.10 dB   -12.16 dB      3:21 Title1-Chapter 10
DR9       -0.10 dB   -11.45 dB      4:53 Title1-Chapter 11
DR9       -0.10 dB   -11.08 dB      3:53 Title1-Chapter 12
DR11      -0.10 dB   -12.13 dB      3:57 Title1-Chapter 13
DR9       -0.10 dB   -10.07 dB      4:09 Title1-Chapter 14
DR9       -0.10 dB   -11.78 dB      5:09 Title1-Chapter 15
--------------------------------------------------------------------------------

Number of tracks:  15
Official DR value: DR10

Samplerate:        96000 Hz
Channels:          2
Bits per sample:   24
Bitrate:           3143 kbps
Codec:             FLAC
================================================================================

=========================================================================================================================================================

Album In Demos & Work Tapes Form

foobar2000 1.4.6 / Dynamic Range Meter 1.1.1
log date: 2019-09-05 22:41:38

--------------------------------------------------------------------------------
Analyzed: XTC / Oranges & Lemons (2015 Remix)
--------------------------------------------------------------------------------

DR         Peak         RMS     Duration Track
--------------------------------------------------------------------------------
DR8       -3.14 dB   -12.27 dB      3:56 01-Garden Of Earthly Delights
DR8       -3.10 dB   -11.90 dB      3:27 02-The Mayor Of Simpleton
DR8       -3.12 dB   -12.76 dB      3:34 03-King For A Day
DR7       -3.10 dB   -11.52 dB      3:31 04-Here Comes President Kill Again
DR4       -3.10 dB    -8.97 dB      4:19 05-The Loving
DR8       -3.10 dB   -13.07 dB      2:20 06-Poor Skeleton Steps Out
DR9       -3.10 dB   -13.21 dB      3:22 07-One Of The Millions
DR5       -3.10 dB    -9.86 dB      4:19 08-Scarecrow People
DR5       -3.10 dB    -9.27 dB      2:58 09-Merely A Man
DR8       -3.10 dB   -12.57 dB      2:52 10-Cynical Days
DR5       -3.10 dB   -10.61 dB      5:38 11-Across This Antheap
DR6       -3.10 dB   -10.01 dB      4:15 12-Hold Me My Daddy
DR4       -3.10 dB    -8.30 dB      3:18 13-Pink Thing
DR6       -3.10 dB   -10.23 dB      4:23 14-Miniature Sun
DR6       -3.11 dB   -10.46 dB      4:57 15-Chalkhills And Children
--------------------------------------------------------------------------------

Number of tracks:  15
Official DR value: DR6

Samplerate:        48000 Hz
Channels:          2
Bits per sample:   24
Bitrate:           1704 kbps
Codec:             FLAC
================================================================================

=========================================================================================================================================================

Extra Demos & Work Tapes

foobar2000 1.4.6 / Dynamic Range Meter 1.1.1
log date: 2019-09-05 22:41:47

--------------------------------------------------------------------------------
Analyzed: XTC / Oranges & Lemons (2015 Remix)
--------------------------------------------------------------------------------

DR         Peak         RMS     Duration Track
--------------------------------------------------------------------------------
DR8       -3.10 dB   -12.46 dB      2:53 01-The Good Things
DR9       -3.10 dB   -14.97 dB      3:59 02-Living In A Haunted Heart
DR9       -3.10 dB   -13.81 dB      2:33 03-Skeletons
DR8       -3.18 dB   -12.62 dB      3:09 04-Blue Beret
DR8       -3.11 dB   -13.19 dB      2:44 05-Way Of The World
DR6       -3.25 dB   -11.53 dB      3:18 06-Everything
DR6       -3.10 dB   -11.41 dB      2:38 07-REM Producer Enquiry (First Version Of The Mayor Of Simpleton)
DR8       -3.13 dB   -12.16 dB      2:45 08-The Mayor Of Simpleton (Early Version)
DR9       -3.27 dB   -13.18 dB      1:33 09-Miniature Sun (Early Version)
DR8       -3.11 dB   -12.79 dB      2:19 10-Pink Thing (Early Version)
DR6       -4.09 dB   -12.82 dB      2:26 11-Was A Yes
DR7       -3.10 dB   -11.27 dB      1:12 12-Miller Time
DR7       -3.10 dB   -10.70 dB      2:41 13-Child's Crusade
DR7       -3.14 dB   -11.66 dB      1:08 14-Rousseau (Early Version Of My Paint Heroes)
DR8       -3.12 dB   -11.83 dB      3:57 15-My Paint Heroes
DR9       -3.12 dB   -14.84 dB      0:43 16-Chapel Lane Radio
DR9       -3.12 dB   -14.42 dB      2:24 17-In Another Life
DR8       -3.10 dB   -12.40 dB      5:10 18-This Is The End
--------------------------------------------------------------------------------

Number of tracks:  18
Official DR value: DR8

Samplerate:        48000 Hz
Channels:          2
Bits per sample:   24
Bitrate:           1603 kbps
Codec:             FLAC
================================================================================

=========================================================================================================================================================

Flat Transfer Of Original Mix

foobar2000 1.4.6 / Dynamic Range Meter 1.1.1
log date: 2019-09-05 22:42:29

--------------------------------------------------------------------------------
Analyzed: XTC / Oranges & Lemons (2015 Remix)
--------------------------------------------------------------------------------

DR         Peak         RMS     Duration Track
--------------------------------------------------------------------------------
DR12      -3.06 dB   -16.96 dB      5:15 01-Garden Of Earthly Delights
DR12      -2.14 dB   -15.26 dB      4:04 02-The Mayor Of Simpleton
DR12      -2.99 dB   -17.92 dB      3:40 03-King For A Day
DR12      -3.52 dB   -17.35 dB      3:35 04-Here Comes President Kill Again
DR12      -3.30 dB   -16.66 dB      4:30 05-The Loving
DR11      -2.62 dB   -15.51 dB      3:50 06-Poor Skeleton Steps Out
DR13      -1.62 dB   -16.21 dB      4:41 07-One Of The Millions
DR12      -2.19 dB   -15.69 dB      4:19 08-Scarecrow People
DR11      -3.26 dB   -15.48 dB      3:34 09-Merely A Man
DR11      -4.23 dB   -17.45 dB      3:33 10-Cynical Days
DR13      -1.56 dB   -16.89 dB      4:55 11-Across This Antheap
DR12      -3.21 dB   -17.86 dB      4:00 12-Hold Me My Daddy
DR12      -2.49 dB   -16.17 dB      3:59 13-Pink Thing
DR12      -2.96 dB   -16.92 dB      4:15 14-Miniature Sun
DR11      -3.81 dB   -17.54 dB      5:09 15-Chalkhills And Children
--------------------------------------------------------------------------------

Number of tracks:  15
Official DR value: DR12

Samplerate:        192000 Hz
Channels:          2
Bits per sample:   24
Bitrate:           5339 kbps
Codec:             FLAC
================================================================================

=========================================================================================================================================================

Hidden Track

foobar2000 1.4.6 / Dynamic Range Meter 1.1.1
log date: 2019-09-05 22:42:30

--------------------------------------------------------------------------------
Statistics for: 01-My Train Is Coming (Recorded Live At Ocean Way Studio With Mike Keneally On Guitar)
Number of samples: 17226720
Duration: 2:59 
--------------------------------------------------------------------------------

                 Left              Right

Peak Value:     -0.10 dB   ---     -0.10 dB   
Avg RMS:       -13.41 dB   ---    -13.55 dB   
DR channel:     12.18 dB   ---     12.35 dB   
--------------------------------------------------------------------------------

Official DR Value: DR12

Samplerate:        96000 Hz
Channels:          2
Bits per sample:   24
Bitrate:           3265 kbps
Codec:             FLAC
================================================================================

=========================================================================================================================================================

Other Recordings

foobar2000 1.4.6 / Dynamic Range Meter 1.1.1
log date: 2019-09-05 22:42:37

--------------------------------------------------------------------------------
Analyzed: XTC / Oranges & Lemons (2015 Remix)
--------------------------------------------------------------------------------

DR         Peak         RMS     Duration Track
--------------------------------------------------------------------------------
DR7       -3.10 dB   -12.34 dB      2:28 01-Ella Guru
DR8       -3.10 dB   -11.51 dB      2:40 02-My Train Is Coming (Demo Recording)
DR7       -3.10 dB   -11.46 dB      4:09 03-The Mayor Of Simpleton Rough Mix (Dave's Guitar Only. Andy Guide Vocal)
DR14      -3.11 dB   -18.69 dB      6:30 04-King For A Day (Czar Mix)
DR14      -3.11 dB   -18.25 dB      5:08 05-King For A Day (Versailles Mix)
DR14      -3.10 dB   -21.98 dB     16:37 06-King For A Day (12' Mix)
--------------------------------------------------------------------------------

Number of tracks:  6
Official DR value: DR11

Samplerate:        48000 Hz
Channels:          2
Bits per sample:   24
Bitrate:           824 kbps
Codec:             FLAC
================================================================================

=========================================================================================================================================================

Promo And Id Work

foobar2000 1.4.6 / Dynamic Range Meter 1.1.1
log date: 2019-09-05 22:42:42

--------------------------------------------------------------------------------
Analyzed: XTC / Oranges & Lemons (2015 Remix)
--------------------------------------------------------------------------------

DR         Peak         RMS     Duration Track
--------------------------------------------------------------------------------
DR10      -3.10 dB   -15.56 dB     29:19 01-Us And Canadian Radio IDs
DR12      -3.82 dB   -19.06 dB      7:00 02-Canadian Radio IDs
DR11      -3.10 dB   -16.57 dB      0:37 03-Geffen Merry Christmas Song
DR11      -3.16 dB   -17.94 dB      0:38 04-Geffen Psychedelic Christmas
--------------------------------------------------------------------------------

Number of tracks:  4
Official DR value: DR11

Samplerate:        48000 Hz
Channels:          2
Bits per sample:   24
Bitrate:           1423 kbps
Codec:             FLAC
================================================================================

=========================================================================================================================================================

Rehearsals At Leeds Studios L.A

foobar2000 1.4.6 / Dynamic Range Meter 1.1.1
log date: 2019-09-05 22:42:49

--------------------------------------------------------------------------------
Analyzed: XTC / Oranges & Lemons (2015 Remix)
--------------------------------------------------------------------------------

DR         Peak         RMS     Duration Track
--------------------------------------------------------------------------------
DR9       -3.10 dB   -13.79 dB      4:49 01-Antheap 1
DR9       -3.10 dB   -13.50 dB      5:15 02-Antheap 2
DR9       -3.10 dB   -15.00 dB      3:15 03-The Good Things
DR9       -3.10 dB   -13.97 dB      2:44 04-Working On Chalkhills And Children
DR8       -3.10 dB   -13.33 dB      6:48 05-Working On One Of The Millions
DR9       -3.10 dB   -13.56 dB      5:50 06-Working On Pink Thing
DR9       -3.10 dB   -13.85 dB      6:21 07-Working On This Is The End
DR9       -3.10 dB   -14.28 dB      3:24 08-Working On Miniature Sun
DR8       -3.10 dB   -12.12 dB      3:20 09-Merely A Man
--------------------------------------------------------------------------------

Number of tracks:  9
Official DR value: DR9

Samplerate:        48000 Hz
Channels:          2
Bits per sample:   24
Bitrate:           1677 kbps
Codec:             FLAC
================================================================================






Create a new paste based on this one


Comments: