[ create a new paste ] login | about

Link: http://codepad.org/J5GtpkNG    [ raw code | fork ]

Plain Text, pasted on Sep 11:
foobar2000 1.2.8 / Dynamic Range Meter 1.1.1
log date: 2014-01-08 12:35:28

--------------------------------------------------------------------------------
Analyzed: Roger Waters / Ça Ira (Hybrid SACD - Disc 1)
--------------------------------------------------------------------------------

DR         Peak         RMS     Duration Track
--------------------------------------------------------------------------------
DR13     -16.80 dB   -44.71 dB      1:38 01-The Gathering Storm
DR15      -3.17 dB   -24.70 dB      4:07 02-Overture
DR12     -14.35 dB   -37.66 dB      0:54 03-A Garden In Vienna 1765
DR15     -11.90 dB   -37.04 dB      2:54 04-Madame Antoine, Madame Antoine...
DR17      -3.99 dB   -29.76 dB      2:40 05-Kings, Sticks And Birds
DR15      -9.47 dB   -32.03 dB      2:10 06-Honest Bird, Simple Bird...
DR14      -1.08 dB   -24.93 dB      2:38 07-I Want To Be King...
DR13      -0.67 dB   -24.02 dB      1:46 08-Let Us Break All The Shields...
DR15      -3.30 dB   -28.49 dB      4:39 09-The Grievances Of The People
DR11      -4.23 dB   -32.91 dB      2:35 10-France In Disarray
DR12     -16.33 dB   -37.42 dB      1:44 11-To Laugh Is To Know How To Live...
DR15      -3.51 dB   -26.96 dB      3:37 12-Slavers, Landlords, Bigots At Your Door...
DR13      -4.45 dB   -30.09 dB      1:35 13-The Fall Of Bastille
DR12      -8.79 dB   -30.54 dB      2:19 14-To Freeze In The Dead Of Night...
DR16      -0.01 dB   -26.57 dB      4:17 15-So To The Streets In The Pouring Rain...
DR15      -7.53 dB   -34.62 dB      2:12 16-Dances And Marches
DR14      -2.71 dB   -24.44 dB      2:18 17-Now Hear Ye!...
DR15      -0.46 dB   -25.33 dB      4:32 18-Flushed With Wine...
DR12      -6.76 dB   -36.36 dB      1:38 19-The Letter
DR15      -4.67 dB   -30.62 dB      2:49 20-My Dear Cousin Bourbon Of Spain...
DR13      -6.82 dB   -32.87 dB      1:47 21-The Ship Of State Is All At Sea...
DR15      -8.07 dB   -33.92 dB      0:55 22-Silver, Sugar And Indigo
DR14      -0.41 dB   -22.33 dB      4:50 23-To The Windward Isles...
DR12      -8.95 dB   -32.27 dB      1:18 24-The Papal Edict
DR15      -0.93 dB   -27.29 dB      6:21 25-In Paris There's A Rumble Under The Ground...
--------------------------------------------------------------------------------

Number of tracks:  25
Official DR value: DR14

Samplerate:        88200 Hz
Channels:          6
Bits per sample:   24
Bitrate:           6354 kbps
Codec:             FLAC
================================================================================



foobar2000 1.2.8 / Dynamic Range Meter 1.1.1
log date: 2014-01-08 12:36:30

--------------------------------------------------------------------------------
Analyzed: Roger Waters / Ça Ira (Hybrid SACD - Disc 2)
--------------------------------------------------------------------------------

DR         Peak         RMS     Duration Track
--------------------------------------------------------------------------------
DR15      -8.19 dB   -33.75 dB      2:12 01-The Fugitive King
DR17      -1.19 dB   -27.16 dB      4:28 02-But The Marquis Of Boulli Has A Trump Card Up His Sleeve...
DR16      -1.67 dB   -30.08 dB      2:41 03-To Take Your Hat Off...
DR14      -6.46 dB   -31.74 dB      3:16 04-The Echoes Never Fade From That Fusillade...
DR13      -4.65 dB   -29.37 dB      2:43 05-The Commune De Paris
DR14      -3.34 dB   -25.53 dB      3:15 06-Vive La Commune De Paris...
DR14      -0.12 dB   -24.79 dB      2:42 07-The National Assembly Is Confused...
DR13      -5.87 dB   -30.02 dB      1:40 08-The Execution Of Louis Capet
DR14      -0.54 dB   -29.44 dB      3:46 09-Adieu Louis For You It's Over...
DR12      -7.68 dB   -31.18 dB      1:36 10-Marie Antoinette - The Last Night On Earth
DR15      -2.33 dB   -27.52 dB      5:10 11-Adieu My Good And Tender Sister...
DR15      -1.60 dB   -27.12 dB      2:51 12-Liberty
DR17      -0.25 dB   -28.99 dB      6:55 13-And In The Bushes Where They Survive...
--------------------------------------------------------------------------------

Number of tracks:  13
Official DR value: DR15

Samplerate:        88200 Hz
Channels:          6
Bits per sample:   24
Bitrate:           6312 kbps
Codec:             FLAC
================================================================================




Create a new paste based on this one


Comments: