[ create a new paste ] login | about

Link: http://codepad.org/J7PvD9Hr    [ raw code | fork ]

Plain Text, pasted on Jun 7:
Exact Audio Copy V1.0 beta 3 from 29. August 2011

EAC extraction logfile from 2. February 2014, 11:26

Various / Falling From Grace

Used drive  : PLEXTOR BD-R  PX-B950SA   Adapter: 6  ID: 0

Read mode               : Secure
Utilize accurate stream : Yes
Defeat audio cache      : Yes
Make use of C2 pointers : No

Read offset correction                      : 6
Overread into Lead-In and Lead-Out          : No
Fill up missing offset samples with silence : Yes
Delete leading and trailing silent blocks   : No
Null samples used in CRC calculations       : Yes
Used interface                              : Native Win32 interface for Win NT & 2000

Used output format : Internal WAV Routines
Sample format      : 44.100 Hz; 16 Bit; Stereo


TOC of the extracted CD

     Track |   Start  |  Length  | Start sector | End sector 
    ---------------------------------------------------------
        1  |  0:00.32 |  2:21.43 |        32    |    10649   
        2  |  2:22.00 |  3:29.15 |     10650    |    26339   
        3  |  5:51.15 |  4:48.22 |     26340    |    47961   
        4  | 10:39.37 |  3:52.00 |     47962    |    65361   
        5  | 14:31.37 |  3:30.65 |     65362    |    81176   
        6  | 18:02.27 |  3:13.23 |     81177    |    95674   
        7  | 21:15.50 |  4:02.42 |     95675    |   113866   
        8  | 25:18.17 |  3:06.15 |    113867    |   127831   
        9  | 28:24.32 |  4:00.45 |    127832    |   145876   
       10  | 32:25.02 |  3:29.58 |    145877    |   161609   
       11  | 35:54.60 |  4:54.42 |    161610    |   183701   
       12  | 40:49.27 |  3:47.60 |    183702    |   200786   
       13  | 44:37.12 |  5:06.23 |    200787    |   223759   


Range status and errors

Selected range

     Filename C:\John Mellencamp\2013 John Mellencamp 1978-2012 (19CD Box Set Mercury Records)\1992 Falling From Grace\Various - Falling From Grace.wav

     Peak level 100.0 %
     Extraction speed 3.5 X
     Range quality 100.0 %
     Test CRC 55B63ACF
     Copy CRC 55B63ACF
     Copy OK

No errors occurred

 
AccurateRip summary
 
Track  1  cannot be verified as accurate (confidence 12)  [6EA0AD7A], AccurateRip returned [006E0C02]  (AR v2)
Track  2  cannot be verified as accurate (confidence 12)  [C05700C3], AccurateRip returned [C3719411]  (AR v2)
Track  3  cannot be verified as accurate (confidence 11)  [EE496291], AccurateRip returned [9BDD29E4]  (AR v2)
Track  4  cannot be verified as accurate (confidence 12)  [3E2AC245], AccurateRip returned [1896B26D]  (AR v2)
Track  5  cannot be verified as accurate (confidence 12)  [1E6B2217], AccurateRip returned [0A0C73A8]  (AR v2)
Track  6  cannot be verified as accurate (confidence 11)  [563C9084], AccurateRip returned [3629B2F3]  (AR v2)
Track  7  cannot be verified as accurate (confidence 13)  [AF845AC7], AccurateRip returned [33F27377]  (AR v2)
Track  8  cannot be verified as accurate (confidence 11)  [B643FBAD], AccurateRip returned [17E5FCF3]  (AR v2)
Track  9  cannot be verified as accurate (confidence 11)  [5317C5AE], AccurateRip returned [08DB2ACF]  (AR v2)
Track 10  cannot be verified as accurate (confidence 12)  [01D64DCD], AccurateRip returned [F1701806]  (AR v2)
Track 11  cannot be verified as accurate (confidence 11)  [B853DE64], AccurateRip returned [AECC4A5F]  (AR v2)
Track 12  cannot be verified as accurate (confidence 11)  [F0EB6795], AccurateRip returned [716ED1D1]  (AR v2)
Track 13  cannot be verified as accurate (confidence 10)  [F3C0224B], AccurateRip returned [5D1EF953]  (AR v2)
 
No tracks could be verified as accurate
You may have a different pressing from the one(s) in the database

End of status report

==== Log checksum 44E2F47319DBC818E8381BAF3603AB33C147335571CC101943F458F03B2A49BE ====



Create a new paste based on this one


Comments: