[ create a new paste ] login | about

Link: http://codepad.org/J9y1Ic90    [ raw code | fork ]

Plain Text, pasted on Aug 7:
foobar2000 1.3.17 / Dynamic Range Meter 1.1.1
log date: 2018-08-06 13:18:02

--------------------------------------------------------------------------------
Analyzed: Rod Stewart / Foolish Behaviour
--------------------------------------------------------------------------------

DR         Peak         RMS     Duration Track
--------------------------------------------------------------------------------
DR13      -0.43 dB   -15.88 dB      3:07 01-Better Off Dead
DR15       0.00 dB   -18.91 dB      5:34 02-Passion
DR13      -1.30 dB   -16.77 dB      4:25 03-Foolish Behaviour
DR18      -1.80 dB   -22.22 dB      3:45 04-So Soon We Change
DR13      -2.91 dB   -18.29 dB      5:02 05-Oh God, I Wish I Was at Home Tonight
DR13      -2.02 dB   -18.14 dB      3:48 06-GI' Me Wings
DR13      -2.66 dB   -18.60 dB      4:28 07-My Girl
DR12      -2.61 dB   -16.61 dB      2:30 08-She Won't Dance With Me
DR15      -2.03 dB   -19.75 dB      4:30 09-Somebody Special
DR15      -0.91 dB   -20.02 dB      4:04 10-Say It Ain't True
--------------------------------------------------------------------------------

Number of tracks:  10
Official DR value: DR14

Samplerate:        192000 Hz
Channels:          2
Bits per sample:   24
Bitrate:           4525 kbps
Codec:             FLAC
================================================================================




Create a new paste based on this one


Comments: