[ create a new paste ] login | about

Link: http://codepad.org/JCVott4U    [ raw code | fork ]

Plain Text, pasted on May 12:
[CUETools log; Date: 5/12/2016 6:00:05 AM; Version: 2.1.5]
HDCD: peak extend: none, transient filter: some, gain: none
[CTDB TOCID: 6hdi1Vd6VHSnAKkAQm84xsTY.70-] found.
Track | CTDB Status
  1   | (20/20) Accurately ripped
  2   | (20/20) Accurately ripped
  3   | (20/20) Accurately ripped
  4   | (19/20) Accurately ripped
  5   | (20/20) Accurately ripped
  6   | (20/20) Accurately ripped
  7   | (20/20) Accurately ripped
  8   | (20/20) Accurately ripped
  9   | (20/20) Accurately ripped
 10   | (20/20) Accurately ripped
 11   | (20/20) Accurately ripped
[AccurateRip ID: 000cb903-006cf63f-8d06e70b] found.
Track   [  CRC   |   V2   ] Status
 01     [9da81aa5|fa9ec3ce] (20+43/63) Accurately ripped
 02     [fe2a2d60|e9ef3773] (20+43/63) Accurately ripped
 03     [dce64d71|62a951a1] (20+43/63) Accurately ripped
 04     [78f5317a|1337d82e] (20+43/63) Accurately ripped
 05     [21b33368|7bd3595e] (20+43/63) Accurately ripped
 06     [6a7605aa|c9e3d9e8] (20+43/63) Accurately ripped
 07     [fc5bab01|35c0c881] (20+43/63) Accurately ripped
 08     [25a81842|36756ab2] (20+44/64) Accurately ripped
 09     [1ec1cbb3|26931cd5] (20+44/64) Accurately ripped
 10     [99bcd8ff|ca3da491] (20+44/64) Accurately ripped
 11     [931da3cc|34cf4983] (20+43/63) Accurately ripped
Offsetted by -18:
 01     [e7e9d2fc] (00/63) No match (V2 was not tested)
 02     [fdf09349] (00/63) No match (V2 was not tested)
 03     [34a16553] (00/63) No match (V2 was not tested)
 04     [195741bc] (00/63) No match (V2 was not tested)
 05     [23f4b649] (00/63) No match (V2 was not tested)
 06     [fe6aa928] (00/63) No match (V2 was not tested)
 07     [42588409] (00/63) No match (V2 was not tested)
 08     [c1559765] (00/64) No match (V2 was not tested)
 09     [888e9dc8] (00/64) No match (V2 was not tested)
 10     [ab353bd1] (00/64) No match (V2 was not tested)
 11     [34262d61] (00/63) No match (V2 was not tested)

Track Peak [ CRC32  ] [W/O NULL] [  LOG   ]
 --  100.0 [FCEB30E5] [4F4307DD]   CRC32   
 01   92.8 [C3D76B2D] [4883C6B4]           
 02   68.1 [4FA259A9] [F2913703]           
 03   96.9 [A88A27F0] [F7463C13]           
 04   92.6 [9456B113] [687D9A58]           
 05   92.2 [E99B5FAC] [11A83B75]           
 06   94.8 [2ACFCCA1] [2E44D831]           
 07  100.0 [4DDE52F4] [E648E6A2]           
 08   88.5 [C47C8DD4] [398C87FF]           
 09   81.2 [69A33D5E] [6D2C4B37]           
 10   98.9 [E5AD236C] [E4ECD698]           
 11   93.4 [90AF0D6F] [3DF5E0FC]           



Create a new paste based on this one


Comments: