[ create a new paste ] login | about

Link: http://codepad.org/JDf30vYG    [ raw code | fork ]

Plain Text, pasted on Aug 3:
foobar2000 1.3.17 / Dynamic Range Meter 1.1.1
log date: 2018-08-03 11:44:57

--------------------------------------------------------------------------------
Analyzed: Janet Feder / Songs With Words
--------------------------------------------------------------------------------

DR         Peak         RMS     Duration Track
--------------------------------------------------------------------------------
DR14      -1.96 dB   -24.00 dB      5:19 01-Heater
DR16      -0.15 dB   -21.86 dB      4:44 02-Your Country Is Like A Wall
DR13     -11.29 dB   -28.82 dB      3:29 03-My Blackest Crow
DR15      -2.86 dB   -24.76 dB      3:59 04-A Thousand Million Petty Tyrants
DR14      -2.84 dB   -23.33 dB      4:41 05-Blowin' In The Wind
DR14      -3.20 dB   -22.73 dB      3:42 06-O The Sky Falling Moment
DR18      -0.01 dB   -23.30 dB      7:03 07-Plan To Live
DR13      -9.29 dB   -26.64 dB      3:46 08-White Men Landing
DR19      -0.11 dB   -29.61 dB      3:20 09-Trees Are Burning
DR12     -15.34 dB   -33.97 dB      4:01 10-Ocean Wall
--------------------------------------------------------------------------------

Number of tracks:  10
Official DR value: DR15

Samplerate:        88200 Hz
Channels:          2
Bits per sample:   24
Bitrate:           2066 kbps
Codec:             FLAC
================================================================================




Create a new paste based on this one


Comments: