[ create a new paste ] login | about

Link: http://codepad.org/JHom2UMi    [ raw code | fork ]

Plain Text, pasted on Jun 7:
Exact Audio Copy V1.0 beta 3 from 29. August 2011

EAC extraction logfile from 2. February 2014, 12:23

John Mellencamp / Big Daddy

Used drive  : PLEXTOR BD-R  PX-B950SA   Adapter: 6  ID: 0

Read mode               : Secure
Utilize accurate stream : Yes
Defeat audio cache      : Yes
Make use of C2 pointers : No

Read offset correction                      : 6
Overread into Lead-In and Lead-Out          : No
Fill up missing offset samples with silence : Yes
Delete leading and trailing silent blocks   : No
Null samples used in CRC calculations       : Yes
Used interface                              : Native Win32 interface for Win NT & 2000

Used output format : Internal WAV Routines
Sample format      : 44.100 Hz; 16 Bit; Stereo


TOC of the extracted CD

     Track |   Start  |  Length  | Start sector | End sector 
    ---------------------------------------------------------
        1  |  0:00.00 |  3:31.32 |         0    |    15856   
        2  |  3:31.32 |  3:20.35 |     15857    |    30891   
        3  |  6:51.67 |  3:45.13 |     30892    |    47779   
        4  | 10:37.05 |  4:50.35 |     47780    |    69564   
        5  | 15:27.40 |  4:03.02 |     69565    |    87791   
        6  | 19:30.42 |  2:48.40 |     87792    |   100431   
        7  | 22:19.07 |  2:32.35 |    100432    |   111866   
        8  | 24:51.42 |  3:06.30 |    111867    |   125846   
        9  | 27:57.72 |  3:34.15 |    125847    |   141911   
       10  | 31:32.12 |  3:19.48 |    141912    |   156884   
       11  | 34:51.60 |  3:42.65 |    156885    |   173599   
       12  | 38:34.50 |  3:13.60 |    173600    |   188134   
       13  | 41:48.35 |  4:21.40 |    188135    |   207749   


Range status and errors

Selected range

     Filename C:\John Mellencamp\2013 John Mellencamp 1978-2012 (19CD Box Set Mercury Records)\1989 Big Daddy\John Mellencamp - Big Daddy.wav

     Peak level 98.8 %
     Extraction speed 7.6 X
     Range quality 100.0 %
     Test CRC 86FE127F
     Copy CRC 86FE127F
     Copy OK

No errors occurred

 
AccurateRip summary
 
Track  1  accurately ripped (confidence 16)  [54BF1143]  (AR v2)
Track  2  accurately ripped (confidence 16)  [5925BFEA]  (AR v2)
Track  3  accurately ripped (confidence 16)  [9855C8FF]  (AR v2)
Track  4  accurately ripped (confidence 16)  [62B86CE0]  (AR v2)
Track  5  accurately ripped (confidence 16)  [2266A512]  (AR v2)
Track  6  accurately ripped (confidence 16)  [2CC096F4]  (AR v2)
Track  7  accurately ripped (confidence 16)  [AB2F916E]  (AR v2)
Track  8  accurately ripped (confidence 16)  [72830A92]  (AR v2)
Track  9  accurately ripped (confidence 16)  [14690A20]  (AR v2)
Track 10  accurately ripped (confidence 16)  [6159D6C1]  (AR v2)
Track 11  accurately ripped (confidence 16)  [9AF23C4B]  (AR v2)
Track 12  accurately ripped (confidence 16)  [0864AE02]  (AR v2)
Track 13  accurately ripped (confidence 16)  [019826AF]  (AR v2)
 
All tracks accurately ripped

End of status report

==== Log checksum 449115BF117B7758924AEA9161217FD7947794D73BF76CF209787BC11113D6DF ====



Create a new paste based on this one


Comments: