[ create a new paste ] login | about

Link: http://codepad.org/JMW1hCtX    [ raw code | fork ]

Plain Text, pasted on May 24:
foobar2000 1.3.15 / Dynamic Range Meter 1.1.1
log date: 2017-05-23 14:29:56

--------------------------------------------------------------------------------
Analyzed: Buddy Rich / The Greatest Drummer That Ever Lived...With "THE BEST BAND I EVER HAD",
--------------------------------------------------------------------------------

DR         Peak         RMS     Duration Track
--------------------------------------------------------------------------------
DR14      -5.10 dB   -23.04 dB      6:45 01-Birdland
DR15      -4.04 dB   -23.27 dB      5:54 02-Bouncin' With Bud
DR13      -5.20 dB   -22.17 dB      6:16 03-Cape Verdean Blues
DR13      -4.64 dB   -22.35 dB      6:22 04-Fiesta
DR13      -4.21 dB   -20.44 dB      4:30 05-Funk City Ola
--------------------------------------------------------------------------------

Number of tracks:  5
Official DR value: DR14

Samplerate:        2822400 Hz / PCM Samplerate: 88200 Hz
Channels:          2
Bits per sample:   1
Bitrate:           5645 kbps
Codec:             DSD64
================================================================================




Create a new paste based on this one


Comments: