[ create a new paste ] login | about

Link: http://codepad.org/JZAchkpU    [ raw code | fork ]

Plain Text, pasted on Apr 20:
foobar2000 1.3.9 / Dynamic Range Meter 1.1.1
log date: 2016-06-22 12:38:34

--------------------------------------------------------------------------------
Analyzed: Isao Tomita / Okhotsk Fantasy (Hybrid SACD)
--------------------------------------------------------------------------------

DR         Peak         RMS     Duration Track
--------------------------------------------------------------------------------
DR10      -0.55 dB   -16.08 dB     11:46 01-Okhotsk Fantasy
DR13      -0.60 dB   -19.02 dB      7:16 02-Pavane Pour Une Infante Défunte
DR11      -5.94 dB   -23.26 dB      1:55 03-Ma Mere L'Oye Suite: Pavane De La Belle Au Bois Dormant
DR13      -1.44 dB   -19.95 dB      3:52 04-Petite Poucet
DR14      -0.21 dB   -20.39 dB      3:38 05-Laideronette, Impératrice Des Pagodes
DR17      -0.16 dB   -23.17 dB      6:00 06-Les Entretiens De La Belle Et La Bête
DR13      -0.28 dB   -18.46 dB      4:25 07-Le Jardin Feerique
DR10      -0.25 dB   -14.24 dB     10:10 08-Symphonic Poem For Children 'Night On The Milky Way Train'
--------------------------------------------------------------------------------

Number of tracks:  8
Official DR value: DR13

Samplerate:        88200 Hz
Channels:          2
Bits per sample:   24
Bitrate:           2088 kbps
Codec:             FLAC
================================================================================




Create a new paste based on this one


Comments: