[ create a new paste ] login | about

Link: http://codepad.org/JaIFs2X4    [ raw code | fork ]

Plain Text, pasted on May 10:
X Lossless Decoder version 20170729 (150.3)

XLD extraction logfile from 2018-05-05 21:11:20 +0500

Jimi Hendrix / Both Sides of the Sky

Used drive : HL-DT-ST DVDRAM GP60NS60 (revision PE00)
Media type : Pressed CD

Ripper mode             : XLD Secure Ripper
Disable audio cache     : OK for the drive with a cache less than 1375KiB
Make use of C2 pointers : NO
Read offset correction  : 6
Max retry count         : 20
Gap status              : Analyzed, Appended

TOC of the extracted CD
     Track |   Start  |  Length  | Start sector | End sector 
    ---------------------------------------------------------
        1  | 00:00:00 | 05:01:67 |         0    |    22641   
        2  | 05:01:67 | 03:03:56 |     22642    |    36422   
        3  | 08:05:48 | 07:26:04 |     36423    |    69876   
        4  | 15:31:52 | 03:14:36 |     69877    |    84462   
        5  | 18:46:13 | 05:00:69 |     84463    |   107031   
        6  | 23:47:07 | 05:56:25 |    107032    |   133756   
        7  | 29:43:32 | 03:29:08 |    133757    |   149439   
        8  | 33:12:40 | 03:42:26 |    149440    |   166115   
        9  | 36:54:66 | 07:56:27 |    166116    |   201842   
       10  | 44:51:18 | 03:56:00 |    201843    |   219542   
       11  | 48:47:18 | 05:19:74 |    219543    |   243541   
       12  | 54:07:17 | 04:37:58 |    243542    |   264374   
       13  | 58:45:00 | 07:01:00 |    264375    |   295949   

List of alternate offset correction values
        #  | Absolute | Relative | Confidence 
    ------------------------------------------
        1  |      0   |     -6   |      2     

AccurateRip Summary (DiscID: 001e70fb-01321d4a-ca0f6a0d)
    Track 01 : OK (v2, confidence 25/27)
    Track 02 : OK (v2, confidence 25/25)
    Track 03 : OK (v2, confidence 25/25)
    Track 04 : OK (v2, confidence 25/25)
    Track 05 : OK (v2, confidence 25/25)
    Track 06 : OK (v2, confidence 25/25)
    Track 07 : OK (v2, confidence 25/25)
    Track 08 : OK (v2, confidence 25/25)
    Track 09 : OK (v2, confidence 25/25)
    Track 10 : OK (v2, confidence 25/25)
    Track 11 : OK (v2, confidence 25/25)
    Track 12 : OK (v2, confidence 25/25)
    Track 13 : OK (v2, confidence 25/25)
        ->All tracks accurately ripped.

All Tracks
    Filename : /Users/mihail/Music/CDs/Jimi Hendrix - Both Sides of the Sky.flac
    Album gain               : -5.16 dB
    Peak                     : 1.000000
    CRC32 hash (test run)    : A514E570
    CRC32 hash               : A514E570
    CRC32 hash (skip zero)   : 77883651
    Statistics
        Read error                           : 0
        Jitter error (maybe fixed)           : 0
        Retry sector count                   : 0
        Damaged sector count                 : 0

Track 01
    Pre-gap length : 00:02:00

    Track gain               : -5.77 dB
    Peak                     : 0.999969
    CRC32 hash (test run)    : 14D58A87
    CRC32 hash               : 14D58A87
    CRC32 hash (skip zero)   : ED9059C9
    AccurateRip v1 signature : BFF646A7
    AccurateRip v2 signature : 446B79BA
        ->Accurately ripped (v2, confidence 25/27)
    Statistics
        Read error                           : 0
        Jitter error (maybe fixed)           : 0
        Retry sector count                   : 0
        Damaged sector count                 : 0

Track 02
    Pre-gap length : 00:00:28

    Track gain               : -4.64 dB
    Peak                     : 1.000000
    CRC32 hash (test run)    : CB96863C
    CRC32 hash               : CB96863C
    CRC32 hash (skip zero)   : DC987424
    AccurateRip v1 signature : F828BC8E
    AccurateRip v2 signature : 9C627085
        ->Accurately ripped (v2, confidence 25/25)
    Statistics
        Read error                           : 0
        Jitter error (maybe fixed)           : 0
        Retry sector count                   : 0
        Damaged sector count                 : 0

Track 03
    Pre-gap length : 00:00:24

    Track gain               : -5.61 dB
    Peak                     : 0.999969
    CRC32 hash (test run)    : 0FED89E1
    CRC32 hash               : 0FED89E1
    CRC32 hash (skip zero)   : 57E967B6
    AccurateRip v1 signature : 998AB1C5
    AccurateRip v2 signature : 685C7D97
        ->Accurately ripped (v2, confidence 25/25)
    Statistics
        Read error                           : 0
        Jitter error (maybe fixed)           : 0
        Retry sector count                   : 0
        Damaged sector count                 : 0

Track 04
    Pre-gap length : 00:00:29

    Track gain               : -5.03 dB
    Peak                     : 0.999969
    CRC32 hash (test run)    : 3E31D182
    CRC32 hash               : 3E31D182
    CRC32 hash (skip zero)   : 2AA5BADA
    AccurateRip v1 signature : DC63F840
    AccurateRip v2 signature : CE7D4CD9
        ->Accurately ripped (v2, confidence 25/25)
    Statistics
        Read error                           : 0
        Jitter error (maybe fixed)           : 0
        Retry sector count                   : 0
        Damaged sector count                 : 0

Track 05
    Pre-gap length : 00:01:63

    Track gain               : -5.12 dB
    Peak                     : 0.999969
    CRC32 hash (test run)    : 12F99199
    CRC32 hash               : 12F99199
    CRC32 hash (skip zero)   : D375FB1F
    AccurateRip v1 signature : FA03AEFB
    AccurateRip v2 signature : C0112E59
        ->Accurately ripped (v2, confidence 25/25)
    Statistics
        Read error                           : 0
        Jitter error (maybe fixed)           : 0
        Retry sector count                   : 0
        Damaged sector count                 : 0

Track 06
    Pre-gap length : 00:01:63

    Track gain               : -4.40 dB
    Peak                     : 1.000000
    CRC32 hash (test run)    : 6279429B
    CRC32 hash               : 6279429B
    CRC32 hash (skip zero)   : FB6E5AEF
    AccurateRip v1 signature : EBB199F8
    AccurateRip v2 signature : 35ADEF1F
        ->Accurately ripped (v2, confidence 25/25)
    Statistics
        Read error                           : 0
        Jitter error (maybe fixed)           : 0
        Retry sector count                   : 0
        Damaged sector count                 : 0

Track 07
    Pre-gap length : 00:00:74

    Track gain               : -3.11 dB
    Peak                     : 0.999969
    CRC32 hash (test run)    : 0498261B
    CRC32 hash               : 0498261B
    CRC32 hash (skip zero)   : D7D2032A
    AccurateRip v1 signature : 919FED17
    AccurateRip v2 signature : 84D4303C
        ->Accurately ripped (v2, confidence 25/25)
    Statistics
        Read error                           : 0
        Jitter error (maybe fixed)           : 0
        Retry sector count                   : 0
        Damaged sector count                 : 0

Track 08
    Pre-gap length : 00:00:74

    Track gain               : -5.11 dB
    Peak                     : 0.999969
    CRC32 hash (test run)    : D8294C11
    CRC32 hash               : D8294C11
    CRC32 hash (skip zero)   : 86A2B744
    AccurateRip v1 signature : 1A312837
    AccurateRip v2 signature : F5FAE468
        ->Accurately ripped (v2, confidence 25/25)
    Statistics
        Read error                           : 0
        Jitter error (maybe fixed)           : 0
        Retry sector count                   : 0
        Damaged sector count                 : 0

Track 09
    Pre-gap length : 00:00:74

    Track gain               : -6.06 dB
    Peak                     : 1.000000
    CRC32 hash (test run)    : 5650ECD6
    CRC32 hash               : 5650ECD6
    CRC32 hash (skip zero)   : C77A3C95
    AccurateRip v1 signature : 5C7D4C5C
    AccurateRip v2 signature : 31551AA2
        ->Accurately ripped (v2, confidence 25/25)
    Statistics
        Read error                           : 0
        Jitter error (maybe fixed)           : 0
        Retry sector count                   : 0
        Damaged sector count                 : 0

Track 10
    Pre-gap length : 00:00:74

    Track gain               : -4.40 dB
    Peak                     : 0.999969
    CRC32 hash (test run)    : F5B50A0B
    CRC32 hash               : F5B50A0B
    CRC32 hash (skip zero)   : 84280D50
    AccurateRip v1 signature : 232CC5D2
    AccurateRip v2 signature : C4A91315
        ->Accurately ripped (v2, confidence 25/25)
    Statistics
        Read error                           : 0
        Jitter error (maybe fixed)           : 0
        Retry sector count                   : 0
        Damaged sector count                 : 0

Track 11
    Pre-gap length : 00:01:10

    Track gain               : -4.55 dB
    Peak                     : 0.999969
    CRC32 hash (test run)    : 35E51B59
    CRC32 hash               : 35E51B59
    CRC32 hash (skip zero)   : D214D186
    AccurateRip v1 signature : CBBAC22B
    AccurateRip v2 signature : 12CD9E32
        ->Accurately ripped (v2, confidence 25/25)
    Statistics
        Read error                           : 0
        Jitter error (maybe fixed)           : 0
        Retry sector count                   : 0
        Damaged sector count                 : 0

Track 12
    Pre-gap length : 00:00:74

    Track gain               : -4.40 dB
    Peak                     : 0.999969
    CRC32 hash (test run)    : A3350FFD
    CRC32 hash               : A3350FFD
    CRC32 hash (skip zero)   : F6174E53
    AccurateRip v1 signature : C784FD3A
    AccurateRip v2 signature : 4A6B7B01
        ->Accurately ripped (v2, confidence 25/25)
    Statistics
        Read error                           : 0
        Jitter error (maybe fixed)           : 0
        Retry sector count                   : 0
        Damaged sector count                 : 0

Track 13
    Pre-gap length : 00:00:74

    Track gain               : -3.42 dB
    Peak                     : 0.999969
    CRC32 hash (test run)    : B0228062
    CRC32 hash               : B0228062
    CRC32 hash (skip zero)   : 1A8908D1
    AccurateRip v1 signature : 009E1D0C
    AccurateRip v2 signature : 5471C9C6
        ->Accurately ripped (v2, confidence 25/25)
    Statistics
        Read error                           : 0
        Jitter error (maybe fixed)           : 0
        Retry sector count                   : 0
        Damaged sector count                 : 0

No errors occurred

End of status report

-----BEGIN XLD SIGNATURE-----
WnR63i5w9QnD8UN8SMlt_MeXUfywXn3JiTp6CXM.j.cMX2I5dVGXqELI8fwzwUN.Q.nFtJ4M35ALIWCzZLH0XVSA4BIofhMfS0OWghy
-----END XLD SIGNATURE-----



Create a new paste based on this one


Comments: