[ create a new paste ] login | about

Link: http://codepad.org/JfM8gxO8    [ raw code | fork ]

Plain Text, pasted on Feb 14:
foobar2000 1.3.9 / Dynamic Range Meter 1.1.1
log date: 2016-03-24 17:52:19

--------------------------------------------------------------------------------
Analyzed: Loggins & Messina / Sittin' In (2015 AF Hybrid SACD)
--------------------------------------------------------------------------------

DR         Peak         RMS     Duration Track
--------------------------------------------------------------------------------
DR11      -1.07 dB   -15.22 dB      3:01 01-Nobody But You
DR11      -5.13 dB   -20.03 dB      4:17 02-Danny's Song
DR12      -2.14 dB   -17.31 dB      4:48 03-Vahevala
DR13      -1.52 dB   -19.23 dB     11:18 04-Trilogy: Lovin' Me / To Make A Woman Feel Wanted Peace Of Mind
DR12      -2.89 dB   -17.37 dB      3:19 05-Back To Georgia
DR12      -3.58 dB   -19.01 dB      4:26 06-House At Pooh Corner
DR12      -4.71 dB   -18.29 dB      2:50 07-Listen To A Country Song
DR13      -1.30 dB   -18.60 dB      8:18 08-Same Old Wine
DR12      -1.58 dB   -19.61 dB      3:10 09-Rock 'N Roll Mood
--------------------------------------------------------------------------------

Number of tracks:  9
Official DR value: DR12

Samplerate:        88200 Hz
Channels:          2
Bits per sample:   24
Bitrate:           2576 kbps
Codec:             FLAC
================================================================================




Create a new paste based on this one


Comments: