[ create a new paste ] login | about

Link: http://codepad.org/JhrcPVas    [ raw code | fork ]

Plain Text, pasted on Dec 13:
foobar2000 1.4.1 / Dynamic Range Meter 1.1.1
log date: 2018-12-12 19:45:10

--------------------------------------------------------------------------------
Analyzed: Green Day / The Green Day Collection
--------------------------------------------------------------------------------

DR         Peak         RMS     Duration Track
--------------------------------------------------------------------------------
DR9       -0.10 dB    -9.72 dB      2:07 01-Burnout
DR9        0.00 dB    -9.97 dB      2:44 02-Having a Blast
DR9       -0.02 dB   -10.26 dB      2:54 03-Chump
DR7       -0.08 dB   -10.96 dB      3:59 04-Longview
DR8       -0.09 dB    -9.89 dB      3:44 05-Welcome to Paradise
DR9       -0.10 dB    -9.71 dB      2:31 06-Pulling Teeth
DR8       -0.10 dB   -10.19 dB      3:03 07-Basket Case
DR8       -0.09 dB    -9.69 dB      2:14 08-She
DR7       -0.08 dB    -8.30 dB      2:37 09-Sassafras Roots
DR7       -0.06 dB    -8.45 dB      2:58 10-When I Come Around
DR8       -0.09 dB    -8.77 dB      1:35 11-Coming Clean
DR7        0.00 dB    -8.70 dB      1:44 12-Emenius Sleepus
DR8       -0.08 dB    -9.38 dB      1:46 13-In the End
DR9       -0.08 dB   -13.32 dB      2:52 14-F.O.D.
DR13      -0.10 dB   -16.96 dB      1:38 15-All By Myself
--------------------------------------------------------------------------------

Number of tracks:  15
Official DR value: DR8

Samplerate:        96000 Hz
Channels:          2
Bits per sample:   24
Bitrate:           2770 kbps
Codec:             FLAC
================================================================================

foobar2000 1.4.1 / Dynamic Range Meter 1.1.1
log date: 2018-12-12 19:46:03

--------------------------------------------------------------------------------
Analyzed: Green Day / The Green Day Collection
--------------------------------------------------------------------------------

DR         Peak         RMS     Duration Track
--------------------------------------------------------------------------------
DR7        0.00 dB    -7.74 dB      2:17 16-Armatage Shanks
DR6        0.00 dB    -7.09 dB      1:43 17-Brat
DR6        0.00 dB    -7.09 dB      2:16 18-Stuck With Me
DR6        0.00 dB    -6.93 dB      2:16 19-Geek Stink Breath
DR8        0.00 dB    -8.58 dB      2:20 20-No Pride
DR8        0.00 dB    -8.48 dB      2:08 21-Bab's Uvula Who?
DR7        0.00 dB    -7.85 dB      2:48 22-86
DR6        0.00 dB    -7.76 dB      3:35 23-Panic Song
DR6        0.00 dB    -7.18 dB      2:03 24-Stuart and the Ave.
DR8        0.00 dB    -9.79 dB      3:13 25-Brain Stew
DR7        0.00 dB    -7.64 dB      1:31 26-Jaded
DR7        0.00 dB    -7.51 dB      2:13 27-Westbound Sign
DR8        0.00 dB    -8.68 dB      2:01 28-Tight Wad Hill
DR8        0.00 dB    -8.91 dB      2:31 29-Walking Contradiction
--------------------------------------------------------------------------------

Number of tracks:  14
Official DR value: DR7

Samplerate:        96000 Hz
Channels:          2
Bits per sample:   24
Bitrate:           3419 kbps
Codec:             FLAC
================================================================================

foobar2000 1.4.1 / Dynamic Range Meter 1.1.1
log date: 2018-12-12 19:47:17

--------------------------------------------------------------------------------
Analyzed: Green Day / The Green Day Collection
--------------------------------------------------------------------------------

DR         Peak         RMS     Duration Track
--------------------------------------------------------------------------------
DR6       -0.18 dB    -7.06 dB      2:49 30-Nice Guys Finish Last
DR5       -0.18 dB    -6.81 dB      2:52 31-Hitchin' a Ride
DR6       -0.18 dB    -6.98 dB      2:12 32-The Grouch
DR5       -0.18 dB    -6.69 dB      3:18 33-Redundant
DR5       -0.18 dB    -6.57 dB      3:02 34-Scattered
DR6       -0.18 dB    -7.10 dB      2:10 35-All the Time
DR6       -0.18 dB    -6.72 dB      2:27 36-Worry Rock
DR6       -0.18 dB    -6.57 dB      2:22 37-Platypus (I Hate You)
DR5       -0.18 dB    -6.62 dB      3:04 38-Uptight
DR7       -0.18 dB    -8.41 dB      3:48 39-Last Ride In
DR7       -0.18 dB    -7.08 dB      2:13 40-Jinx
DR5       -0.18 dB    -5.96 dB      3:25 41-Haushinka
DR5       -0.18 dB    -6.54 dB      2:45 42-Walking Alone
DR6       -0.18 dB    -6.74 dB      2:06 43-Reject
DR5       -0.18 dB    -6.26 dB      1:09 44-Take Back
DR6       -0.18 dB    -6.59 dB      3:13 45-King for a Day
DR8       -0.18 dB   -11.07 dB      2:35 46-Good Riddance (Time of Your Life)
DR5       -0.18 dB    -7.43 dB      3:38 47-Prosthetic Head
--------------------------------------------------------------------------------

Number of tracks:  18
Official DR value: DR6

Samplerate:        96000 Hz
Channels:          2
Bits per sample:   24
Bitrate:           3030 kbps
Codec:             FLAC
================================================================================

foobar2000 1.4.1 / Dynamic Range Meter 1.1.1
log date: 2018-12-12 19:47:17

--------------------------------------------------------------------------------
Analyzed: Green Day / The Green Day Collection
--------------------------------------------------------------------------------

DR         Peak         RMS     Duration Track
--------------------------------------------------------------------------------
DR6       -0.18 dB    -7.06 dB      2:49 30-Nice Guys Finish Last
DR5       -0.18 dB    -6.81 dB      2:52 31-Hitchin' a Ride
DR6       -0.18 dB    -6.98 dB      2:12 32-The Grouch
DR5       -0.18 dB    -6.69 dB      3:18 33-Redundant
DR5       -0.18 dB    -6.57 dB      3:02 34-Scattered
DR6       -0.18 dB    -7.10 dB      2:10 35-All the Time
DR6       -0.18 dB    -6.72 dB      2:27 36-Worry Rock
DR6       -0.18 dB    -6.57 dB      2:22 37-Platypus (I Hate You)
DR5       -0.18 dB    -6.62 dB      3:04 38-Uptight
DR7       -0.18 dB    -8.41 dB      3:48 39-Last Ride In
DR7       -0.18 dB    -7.08 dB      2:13 40-Jinx
DR5       -0.18 dB    -5.96 dB      3:25 41-Haushinka
DR5       -0.18 dB    -6.54 dB      2:45 42-Walking Alone
DR6       -0.18 dB    -6.74 dB      2:06 43-Reject
DR5       -0.18 dB    -6.26 dB      1:09 44-Take Back
DR6       -0.18 dB    -6.59 dB      3:13 45-King for a Day
DR8       -0.18 dB   -11.07 dB      2:35 46-Good Riddance (Time of Your Life)
DR5       -0.18 dB    -7.43 dB      3:38 47-Prosthetic Head
--------------------------------------------------------------------------------

Number of tracks:  18
Official DR value: DR6

Samplerate:        96000 Hz
Channels:          2
Bits per sample:   24
Bitrate:           3030 kbps
Codec:             FLAC
================================================================================

foobar2000 1.4.1 / Dynamic Range Meter 1.1.1
log date: 2018-12-12 19:49:41

--------------------------------------------------------------------------------
Analyzed: Green Day / The Green Day Collection
--------------------------------------------------------------------------------

DR         Peak         RMS     Duration Track
--------------------------------------------------------------------------------
DR9        0.00 dB   -10.34 dB      2:55 60-American Idiot
DR9        0.00 dB   -10.51 dB      9:09 61-Jesus of Suburbia
DR9        0.00 dB   -10.33 dB      3:53 62-Holiday
DR10       0.00 dB   -10.96 dB      4:21 63-Boulevard of Broken Dreams
DR10       0.00 dB   -11.45 dB      2:43 64-Are We the Waiting
DR9        0.00 dB    -9.77 dB      2:55 65-St. Jimmy
DR9       -0.01 dB   -11.30 dB      3:26 66-Give Me Novacaine
DR9        0.00 dB    -9.68 dB      2:00 67-She's a Rebel
DR10       0.00 dB   -11.45 dB      3:34 68-Extraordinary Girl
DR8        0.00 dB   -10.23 dB      4:06 69-Letterbomb
DR9       -0.07 dB   -12.05 dB      4:46 70-Wake Me Up When September Ends
DR8        0.00 dB   -10.05 dB      9:19 71-Homecoming
DR9        0.00 dB   -12.52 dB      4:13 72-Whatsername
--------------------------------------------------------------------------------

Number of tracks:  13
Official DR value: DR9

Samplerate:        96000 Hz
Channels:          2
Bits per sample:   24
Bitrate:           2909 kbps
Codec:             FLAC
================================================================================

foobar2000 1.4.1 / Dynamic Range Meter 1.1.1
log date: 2018-12-12 19:51:21

--------------------------------------------------------------------------------
Analyzed: Green Day / The Green Day Collection
--------------------------------------------------------------------------------

DR         Peak         RMS     Duration Track
--------------------------------------------------------------------------------
DR14      -5.44 dB   -22.21 dB      0:58 73-Song of the Century
DR9       -0.07 dB   -10.76 dB      5:09 74-21st Century Breakdown
DR9       -0.12 dB   -10.27 dB      3:10 75-Know Your Enemy
DR9       -0.22 dB   -11.41 dB      3:30 76-!Viva la Gloria!
DR8       -0.21 dB   -11.65 dB      4:37 77-Before the Lobotomy
DR9       -0.40 dB   -11.05 dB      3:07 78-Christian's Inferno
DR10      -0.53 dB   -12.83 dB      3:56 79-Last Night On Earth
DR9       -0.18 dB   -11.23 dB      4:35 80-East Jesus Nowhere
DR9       -0.52 dB   -11.18 dB      3:24 81-Peacemaker
DR9       -0.13 dB   -11.87 dB      3:51 82-Last of the American Girls
DR10      -0.29 dB   -10.96 dB      2:54 83-Murder City
DR9       -0.25 dB   -11.63 dB      3:48 84-?Viva la Gloria? (Little Girl)
DR9       -0.24 dB   -12.04 dB      4:21 85-Restless Heart Syndrome
DR8       -0.05 dB    -9.62 dB      3:14 86-Horseshoes and Handgrenades
DR9       -0.38 dB   -11.01 dB      4:17 87-The Static Age
DR9       -0.07 dB   -11.99 dB      5:51 88-21 Guns
DR9       -0.29 dB   -10.71 dB      3:56 89-American Eulogy: Mass Hysteria - Modern World
DR9       -0.56 dB   -11.66 dB      4:36 90-See the Light
--------------------------------------------------------------------------------

Number of tracks:  18
Official DR value: DR9

Samplerate:        96000 Hz
Channels:          2
Bits per sample:   24
Bitrate:           2846 kbps
Codec:             FLAC
================================================================================

foobar2000 1.4.1 / Dynamic Range Meter 1.1.1
log date: 2018-12-12 19:52:24

--------------------------------------------------------------------------------
Analyzed: Green Day / The Green Day Collection
--------------------------------------------------------------------------------

DR         Peak         RMS     Duration Track
--------------------------------------------------------------------------------
DR10      -0.02 dB   -10.76 dB      3:03 91-Nuclear Family
DR10       0.00 dB   -11.60 dB      4:37 92-Stay the Night
DR10      -0.26 dB   -11.63 dB      3:25 93-Carpe Diem
DR9        0.00 dB   -10.39 dB      2:57 94-Let Yourself Go
DR10      -0.03 dB   -11.59 dB      3:42 95-Kill the DJ
DR10      -0.04 dB   -10.91 dB      3:09 96-Fell For You
DR10      -0.42 dB   -10.91 dB      3:08 97-Loss of Control
DR11      -0.31 dB   -11.65 dB      2:45 98-Troublemaker
DR9       -0.06 dB   -10.69 dB      2:47 99-Angel Blue
DR10      -0.05 dB   -11.13 dB      3:04 100-Sweet 16
DR10      -0.12 dB   -10.78 dB      4:09 101-Rusty James
DR10      -0.02 dB   -12.30 dB      5:03 102-Oh Love
--------------------------------------------------------------------------------

Number of tracks:  12
Official DR value: DR10

Samplerate:        96000 Hz
Channels:          2
Bits per sample:   24
Bitrate:           2960 kbps
Codec:             FLAC
================================================================================

foobar2000 1.4.1 / Dynamic Range Meter 1.1.1
log date: 2018-12-12 19:53:21

--------------------------------------------------------------------------------
Analyzed: Green Day / The Green Day Collection
--------------------------------------------------------------------------------

DR         Peak         RMS     Duration Track
--------------------------------------------------------------------------------
DR11      -5.27 dB   -18.44 dB      1:07 103-See You Tonight
DR10       0.00 dB   -10.82 dB      2:46 104-F*** Time
DR10       0.00 dB   -10.46 dB      2:26 105-Stop When The Red Lights Flash
DR10       0.00 dB   -11.45 dB      3:34 106-Lazy Bones
DR11       0.00 dB   -11.40 dB      4:20 107-Wild One
DR9       -0.51 dB   -11.04 dB      3:14 108-Makeout Party
DR10       0.00 dB   -11.51 dB      3:45 109-Stray Heart
DR10       0.00 dB   -10.37 dB      2:50 110-Ashley
DR10       0.00 dB   -10.89 dB      2:22 111-Baby Eyes
DR10       0.00 dB   -10.53 dB      2:06 112-Lady Cobra
DR11       0.00 dB   -11.74 dB      3:05 113-Nightlife
DR10       0.00 dB   -11.27 dB      4:28 114-Wow! That's Loud
DR10      -3.32 dB   -16.05 dB      3:25 115-Amy
--------------------------------------------------------------------------------

Number of tracks:  13
Official DR value: DR10

Samplerate:        96000 Hz
Channels:          2
Bits per sample:   24
Bitrate:           2521 kbps
Codec:             FLAC
================================================================================

foobar2000 1.4.1 / Dynamic Range Meter 1.1.1
log date: 2018-12-12 19:54:27

--------------------------------------------------------------------------------
Analyzed: Green Day / The Green Day Collection
--------------------------------------------------------------------------------

DR         Peak         RMS     Duration Track
--------------------------------------------------------------------------------
DR9        0.00 dB   -11.77 dB      4:55 116-Brutal Love
DR10       0.00 dB   -10.83 dB      3:44 117-Missing You
DR10       0.00 dB   -11.02 dB      2:37 118-8th Avenue Serenade
DR11       0.00 dB   -12.55 dB      3:08 119-Drama Queen
DR10       0.00 dB   -12.37 dB      3:42 120-X-Kid
DR10       0.00 dB   -11.21 dB      3:32 121-Sex, Drugs & Violence
DR11       0.00 dB   -11.45 dB      3:37 122-A Little Boy Named Train
DR11       0.00 dB   -11.28 dB      2:28 123-Amanda
DR11      -0.01 dB   -12.34 dB      3:46 124-Walk Away
DR10       0.00 dB   -10.93 dB      6:26 125-Dirty Rotten Bastards
DR11       0.00 dB   -11.33 dB      3:50 126-99 Revolutions
DR11       0.00 dB   -12.69 dB      4:59 127-The Forgotten
--------------------------------------------------------------------------------

Number of tracks:  12
Official DR value: DR10

Samplerate:        96000 Hz
Channels:          2
Bits per sample:   24
Bitrate:           2884 kbps
Codec:             FLAC
================================================================================




Create a new paste based on this one


Comments: