[ create a new paste ] login | about

Link: http://codepad.org/JplpBZtg    [ raw code | fork ]

Plain Text, pasted on Jul 3:
Exact Audio Copy V0.99 prebeta 5 from 4. May 2009

EAC extraction logfile from 2. July 2016, 11:56

Various / Hey! That's My Song (CD 3)

Used drive  : ATAPI   iHAS122   C   Adapter: 1  ID: 1

Read mode               : Secure
Utilize accurate stream : Yes
Defeat audio cache      : Yes
Make use of C2 pointers : No

Read offset correction                      : 6
Overread into Lead-In and Lead-Out          : No
Fill up missing offset samples with silence : Yes
Delete leading and trailing silent blocks   : No
Null samples used in CRC calculations       : Yes
Used interface                              : Native Win32 interface for Win NT & 2000

Used output format : Internal WAV Routines
Sample format      : 44.100 Hz; 16 Bit; Stereo


TOC of the extracted CD

     Track |   Start  |  Length  | Start sector | End sector 
    ---------------------------------------------------------
        1  |  0:00.00 |  3:02.33 |         0    |    13682   
        2  |  3:02.33 |  2:48.02 |     13683    |    26284   
        3  |  5:50.35 |  2:58.25 |     26285    |    39659   
        4  |  8:48.60 |  2:54.70 |     39660    |    52779   
        5  | 11:43.55 |  2:26.12 |     52780    |    63741   
        6  | 14:09.67 |  2:16.30 |     63742    |    73971   
        7  | 16:26.22 |  2:13.73 |     73972    |    84019   
        8  | 18:40.20 |  2:36.53 |     84020    |    95772   
        9  | 21:16.73 |  2:12.09 |     95773    |   105681   
       10  | 23:29.07 |  1:54.23 |    105682    |   114254   
       11  | 25:23.30 |  2:15.11 |    114255    |   124390   
       12  | 27:38.41 |  2:15.18 |    124391    |   134533   
       13  | 29:53.59 |  3:02.08 |    134534    |   148191   
       14  | 32:55.67 |  3:00.24 |    148192    |   161715   
       15  | 35:56.16 |  2:11.64 |    161716    |   171604   
       16  | 38:08.05 |  2:41.57 |    171605    |   183736   
       17  | 40:49.62 |  2:09.25 |    183737    |   193436   
       18  | 42:59.12 |  2:49.46 |    193437    |   206157   
       19  | 45:48.58 |  2:17.03 |    206158    |   216435   
       20  | 48:05.61 |  2:31.13 |    216436    |   227773   


Range status and errors

Selected range

     Filename C:\Users\Arturs\Desktop\Various - Hey! That's My Song (CD 3).wav

     Peak level 98.6 %
     Range quality 100.0 %
     Test CRC B82975FE
     Copy CRC B82975FE
     Copy OK

No errors occurred

 
AccurateRip summary
 
Track  1  not present in database
Track  2  not present in database
Track  3  not present in database
Track  4  not present in database
Track  5  not present in database
Track  6  not present in database
Track  7  not present in database
Track  8  not present in database
Track  9  not present in database
Track 10  not present in database
Track 11  not present in database
Track 12  not present in database
Track 13  not present in database
Track 14  not present in database
Track 15  not present in database
Track 16  not present in database
Track 17  not present in database
Track 18  not present in database
Track 19  not present in database
Track 20  not present in database
 
None of the tracks are present in the AccurateRip database

End of status report



Create a new paste based on this one


Comments: