[ create a new paste ] login | about

Link: http://codepad.org/JxyDXijm    [ raw code | fork ]

Plain Text, pasted on Sep 16:
CD 1
->
Exact Audio Copy V1.3 from 2. September 2016

EAC extraction logfile from 13. August 2019, 10:44

Ian Dury & The Blockheads / Do It Yourself CD1

Used drive  : PLEXTOR BD-R  PX-B950SA   Adapter: 1  ID: 1

Read mode               : Secure
Utilize accurate stream : Yes
Defeat audio cache      : Yes
Make use of C2 pointers : No

Read offset correction                      : 6
Overread into Lead-In and Lead-Out          : No
Fill up missing offset samples with silence : Yes
Delete leading and trailing silent blocks   : No
Null samples used in CRC calculations       : Yes
Used interface                              : Native Win32 interface for Win NT & 2000

Used output format : Internal WAV Routines
Sample format      : 44.100 Hz; 16 Bit; Stereo


TOC of the extracted CD

     Track |   Start  |  Length  | Start sector | End sector 
    ---------------------------------------------------------
        1  |  0:00.00 |  5:20.00 |         0    |    23999   
        2  |  5:20.00 |  3:34.14 |     24000    |    40063   
        3  |  8:54.14 |  3:19.25 |     40064    |    55013   
        4  | 12:13.39 |  4:12.28 |     55014    |    73941   
        5  | 16:25.67 |  2:53.32 |     73942    |    86948   
        6  | 19:19.24 |  4:10.19 |     86949    |   105717   
        7  | 23:29.43 |  2:10.00 |    105718    |   115467   
        8  | 25:39.43 |  3:33.16 |    115468    |   131458   
        9  | 29:12.59 |  6:39.72 |    131459    |   161455   
       10  | 35:52.56 |  5:06.00 |    161456    |   184405   


Range status and errors

Selected range

     Filename C:\Ian Dury & The Blockheads\1979 Do It Yourself (4-Disc Box Set Edsel Records 2019)\CD1\Ian Dury & The Blockheads - Do It Yourself CD1.wav

     Peak level 94.3 %
     Extraction speed 6.7 X
     Range quality 100.0 %
     Test CRC 46717958
     Copy CRC 46717958
     Copy OK

No errors occurred

 
AccurateRip summary
 
Track  1  not present in database
Track  2  not present in database
Track  3  not present in database
Track  4  not present in database
Track  5  not present in database
Track  6  not present in database
Track  7  not present in database
Track  8  not present in database
Track  9  not present in database
Track 10  not present in database
 
None of the tracks are present in the AccurateRip database

End of status report

---- CUETools DB Plugin V2.1.6

[CTDB TOCID: 9W1oq5ENjHfM3sxEqi3uv4CON0Y-] disk not present in database
Submit result: 9W1oq5ENjHfM3sxEqi3uv4CON0Y- has been uploaded


==== Log checksum 3329650789B5C643462658F4D6A1185F3BC0A04D3D37DE671BC480B5869D4F17 ====
->
=========================================================================================================================================================
->
CD 2
->
Exact Audio Copy V1.3 from 2. September 2016

EAC extraction logfile from 13. August 2019, 10:04

Ian Dury & The Blockheads / Do It Yourself CD2 Bonus Tracks

Used drive  : PLEXTOR BD-R  PX-B950SA   Adapter: 1  ID: 1

Read mode               : Secure
Utilize accurate stream : Yes
Defeat audio cache      : Yes
Make use of C2 pointers : No

Read offset correction                      : 6
Overread into Lead-In and Lead-Out          : No
Fill up missing offset samples with silence : Yes
Delete leading and trailing silent blocks   : No
Null samples used in CRC calculations       : Yes
Used interface                              : Native Win32 interface for Win NT & 2000

Used output format : Internal WAV Routines
Sample format      : 44.100 Hz; 16 Bit; Stereo


TOC of the extracted CD

     Track |   Start  |  Length  | Start sector | End sector 
    ---------------------------------------------------------
        1  |  0:00.00 |  3:27.55 |         0    |    15579   
        2  |  3:27.55 |  3:43.72 |     15580    |    32376   
        3  |  7:11.52 |  3:03.22 |     32377    |    46123   
        4  | 10:14.74 |  4:45.44 |     46124    |    67542   
        5  | 15:00.43 |  3:57.51 |     67543    |    85368   
        6  | 18:58.19 |  5:24.38 |     85369    |   109706   
        7  | 24:22.57 |  6:40.01 |    109707    |   139707   
        8  | 31:02.58 |  4:48.39 |    139708    |   161346   
        9  | 35:51.22 |  4:02.03 |    161347    |   179499   
       10  | 39:53.25 |  3:20.16 |    179500    |   194515   
       11  | 43:13.41 |  5:16.58 |    194516    |   218273   
       12  | 48:30.24 |  2:56.03 |    218274    |   231476   
       13  | 51:26.27 |  5:25.10 |    231477    |   255861   


Range status and errors

Selected range

     Filename C:\Ian Dury & The Blockheads\1979 Do It Yourself (4-Disc Box Set Edsel Records 2019)\CD2\Ian Dury & The Blockheads - Do It Yourself CD2 Bonus Tracks.wav

     Peak level 99.9 %
     Extraction speed 5.9 X
     Range quality 100.0 %
     Test CRC DBB3FACF
     Copy CRC DBB3FACF
     Copy OK

No errors occurred

 
AccurateRip summary
 
Track  1  not present in database
Track  2  not present in database
Track  3  not present in database
Track  4  not present in database
Track  5  not present in database
Track  6  not present in database
Track  7  not present in database
Track  8  not present in database
Track  9  not present in database
Track 10  not present in database
Track 11  not present in database
Track 12  not present in database
Track 13  not present in database
 
None of the tracks are present in the AccurateRip database

End of status report

---- CUETools DB Plugin V2.1.6

[CTDB TOCID: LlZ25k4Jijlkji2BKyeedznTBC4-] disk not present in database
Submit result: LlZ25k4Jijlkji2BKyeedznTBC4- has been uploaded


==== Log checksum 6C5FFF00FC02EB1906840D51EC80318B1214161B39D787FD5AD2A09C344C4D6F ====



Create a new paste based on this one


Comments: