[ create a new paste ] login | about

Link: http://codepad.org/JyB6QFPF    [ raw code | fork ]

Plain Text, pasted on Jun 20:
foobar2000 1.2.8 / Dynamic Range Meter 1.1.1
log date: 2013-08-08 14:06:55

--------------------------------------------------------------------------------
Analyzed: Blood, Sweat & Tears / 3 (2003 MFSL Hybrid SACD)
--------------------------------------------------------------------------------

DR         Peak         RMS     Duration Track
--------------------------------------------------------------------------------
DR10      -0.83 dB   -14.32 dB      4:26 01-Hi-De-Ho
DR11      -0.01 dB   -15.78 dB      2:42 02-The Battle
DR10      -0.90 dB   -12.64 dB      3:04 03-Lucretia MacEvil
DR10      -1.44 dB   -13.75 dB      2:36 04-Lucretia's Reprise
DR10      -1.24 dB   -14.51 dB      4:04 05-Fire And Rain
DR10      -0.75 dB   -16.78 dB      4:36 06-Lonesome Suzie
DR10      -0.89 dB   -15.61 dB      7:49 07-Symphony For The Devil/Sympathy For The Devil
DR11      -1.20 dB   -15.86 dB      4:14 08-He's A Runner
DR10      -0.50 dB   -14.41 dB      4:33 09-Somethin' Comin' On
DR11      -0.52 dB   -15.88 dB      4:44 10-40,000 Headmen
--------------------------------------------------------------------------------

Number of tracks:  10
Official DR value: DR10

Samplerate:        88200 Hz
Channels:          2
Bits per sample:   24
Bitrate:           2613 kbps
Codec:             FLAC
================================================================================




Create a new paste based on this one


Comments: