[ create a new paste ] login | about

Link: http://codepad.org/K1N3gGye    [ raw code | fork ]

Plain Text, pasted on Dec 7:
Disc 1
->
Exact Audio Copy V1.3 from 2. September 2016

EAC extraction logfile from 5. December 2019, 17:00

The Rolling Stones / Let It Bleed SACD1 Stereo

Used drive  : PLEXTOR BD-R  PX-B950SA   Adapter: 1  ID: 1

Read mode               : Secure
Utilize accurate stream : Yes
Defeat audio cache      : Yes
Make use of C2 pointers : No

Read offset correction                      : 6
Overread into Lead-In and Lead-Out          : No
Fill up missing offset samples with silence : Yes
Delete leading and trailing silent blocks   : No
Null samples used in CRC calculations       : Yes
Used interface                              : Native Win32 interface for Win NT & 2000

Used output format : Internal WAV Routines
Sample format      : 44.100 Hz; 16 Bit; Stereo


TOC of the extracted CD

     Track |   Start  |  Length  | Start sector | End sector 
    ---------------------------------------------------------
        1  |  0:00.00 |  4:30.68 |         0    |    20317   
        2  |  4:30.68 |  4:18.72 |     20318    |    39739   
        3  |  8:49.65 |  3:07.74 |     39740    |    53838   
        4  | 11:57.64 |  3:32.73 |     53839    |    69811   
        5  | 15:30.62 |  5:27.68 |     69812    |    94404   
        6  | 20:58.55 |  6:52.19 |     94405    |   125323   
        7  | 27:50.74 |  2:50.74 |    125324    |   138147   
        8  | 30:41.73 |  4:11.70 |    138148    |   157042   
        9  | 34:53.68 |  7:33.13 |    157043    |   191030   


Range status and errors

Selected range

     Filename C:\The Rolling Stones\1969 Let It Bleed (5-Disc Box Set ABKCO Records 2019)\Hybrid SACD 1 Stereo\The Rolling Stones - Let It Bleed SACD1 Stereo.wav

     Peak level 100.0 %
     Extraction speed 6.7 X
     Range quality 99.9 %
     Test CRC 5E487156
     Copy CRC 5E487156
     Copy OK

No errors occurred

 
AccurateRip summary
 
Track  1  not present in database
Track  2  not present in database
Track  3  not present in database
Track  4  not present in database
Track  5  not present in database
Track  6  not present in database
Track  7  not present in database
Track  8  not present in database
Track  9  not present in database
 
None of the tracks are present in the AccurateRip database

End of status report

---- CUETools DB Plugin V2.1.6

[CTDB TOCID: hvLmkTt5HfquMNB0sdFKtF1sL.g-] found
Submit result: hvLmkTt5HfquMNB0sdFKtF1sL.g- has been confirmed
Track | CTDB Status
  1   | (7/7) Accurately ripped
  2   | (7/7) Accurately ripped
  3   | (7/7) Accurately ripped
  4   | (7/7) Accurately ripped
  5   | (7/7) Accurately ripped
  6   | (7/7) Accurately ripped
  7   | (7/7) Accurately ripped
  8   | (7/7) Accurately ripped
  9   | (7/7) Accurately ripped


==== Log checksum 4F0F5E6E78967786C0ABD818ACCF357D9E7DEEC18DA2CC30AD38CA6011F70363 ====
->
----------------------------------------------------------------------------------------------------------------------------------
->
Disc 2
->
Exact Audio Copy V1.3 from 2. September 2016

EAC extraction logfile from 5. December 2019, 16:33

The Rolling Stones / Let It Bleed SACD2 Mono

Used drive  : PLEXTOR BD-R  PX-B950SA   Adapter: 1  ID: 1

Read mode               : Secure
Utilize accurate stream : Yes
Defeat audio cache      : Yes
Make use of C2 pointers : No

Read offset correction                      : 6
Overread into Lead-In and Lead-Out          : No
Fill up missing offset samples with silence : Yes
Delete leading and trailing silent blocks   : No
Null samples used in CRC calculations       : Yes
Used interface                              : Native Win32 interface for Win NT & 2000

Used output format : Internal WAV Routines
Sample format      : 44.100 Hz; 16 Bit; Stereo


TOC of the extracted CD

     Track |   Start  |  Length  | Start sector | End sector 
    ---------------------------------------------------------
        1  |  0:00.00 |  4:30.73 |         0    |    20322   
        2  |  4:30.73 |  4:18.72 |     20323    |    39744   
        3  |  8:49.70 |  3:07.69 |     39745    |    53838   
        4  | 11:57.64 |  3:33.02 |     53839    |    69815   
        5  | 15:30.66 |  5:27.64 |     69816    |    94404   
        6  | 20:58.55 |  6:52.18 |     94405    |   125322   
        7  | 27:50.73 |  2:50.74 |    125323    |   138146   
        8  | 30:41.72 |  4:11.70 |    138147    |   157041   
        9  | 34:53.67 |  7:33.61 |    157042    |   191077   


Range status and errors

Selected range

     Filename C:\The Rolling Stones\1969 Let It Bleed (5-Disc Box Set ABKCO Records 2019)\Hybrid SACD 2 Mono\The Rolling Stones - Let It Bleed SACD2 Mono.wav

     Peak level 99.6 %
     Extraction speed 6.8 X
     Range quality 100.0 %
     Test CRC 4E2EACED
     Copy CRC 4E2EACED
     Copy OK

No errors occurred

 
AccurateRip summary
 
Track  1  not present in database
Track  2  not present in database
Track  3  not present in database
Track  4  not present in database
Track  5  not present in database
Track  6  not present in database
Track  7  not present in database
Track  8  not present in database
Track  9  not present in database
 
None of the tracks are present in the AccurateRip database

End of status report

---- CUETools DB Plugin V2.1.6

[CTDB TOCID: VchfLGV3qdC1VImRqtZK4X9HVp0-] found
Submit result: VchfLGV3qdC1VImRqtZK4X9HVp0- has been confirmed
Track | CTDB Status
  1   | (3/3) Accurately ripped
  2   | (3/3) Accurately ripped
  3   | (3/3) Accurately ripped
  4   | (3/3) Accurately ripped
  5   | (3/3) Accurately ripped
  6   | (3/3) Accurately ripped
  7   | (3/3) Accurately ripped
  8   | (3/3) Accurately ripped
  9   | (3/3) Accurately ripped


==== Log checksum B373A8FFDB05C84FACF4395BF074DCF8F0B36B834EF65F65466FCB41A5C8A39A ====



Create a new paste based on this one


Comments: