[ create a new paste ] login | about

Link: http://codepad.org/K5ChJqZx    [ raw code | fork ]

Plain Text, pasted on Aug 11:
foobar2000 1.2.2 / Dynamic Range Meter 1.1.1
log date: 2013-05-09 14:54:37

--------------------------------------------------------------------------------
Analyzed: Nancy Sinatra / Super Audio Best (Hybrid SACD)
--------------------------------------------------------------------------------

DR         Peak         RMS     Duration Track
--------------------------------------------------------------------------------
DR14      -0.39 dB   -17.17 dB      2:42 01-These Boots Are Made For Walking
DR14      -0.70 dB   -16.70 dB      4:15 02-Summerwine
DR12      -0.01 dB   -15.66 dB      2:46 03-Things
DR13      -2.04 dB   -17.19 dB      2:58 04-Did You Ever
DR16      -0.97 dB   -19.13 dB      2:28 05-Friday's Child
DR10      -2.57 dB   -15.41 dB      2:58 06-You Only Live Twice
DR14      -0.51 dB   -16.35 dB      3:29 07-Highway Song
DR12      -0.39 dB   -15.28 dB      3:15 08-Elusive Dreams
DR12      -0.67 dB   -15.65 dB      3:11 09-Storybook Children
DR14      -0.49 dB   -17.46 dB      2:24 10-Sugar Town
DR12      -0.79 dB   -15.97 dB      2:41 11-Something Stupid
DR13      -1.80 dB   -16.75 dB      2:48 12-Jackson
DR14      -0.83 dB   -19.83 dB      3:46 13-Sand
DR12      -0.71 dB   -14.53 dB      2:38 14-Sundown, Sundown
DR12      -1.70 dB   -16.01 dB      3:37 15-Some Velvet Morning
DR14      -1.90 dB   -17.36 dB      2:50 16-I've Been Down So Long
DR13      -1.52 dB   -16.64 dB      2:27 17-Tony Rome
DR14      -0.72 dB   -17.53 dB      2:33 18-How Does That Grab You, Darlin'
DR12      -1.30 dB   -15.48 dB      3:05 19-Lady Bird
DR12      -1.24 dB   -15.88 dB      3:06 20-So Long Babe
--------------------------------------------------------------------------------

Number of tracks:  20
Official DR value: DR13

Samplerate:        88200 Hz
Channels:          2
Bits per sample:   24
Bitrate:           2694 kbps
Codec:             FLAC
================================================================================




Create a new paste based on this one


Comments: