[ create a new paste ] login | about

Link: http://codepad.org/K6vNJtzK    [ raw code | fork ]

Plain Text, pasted on Dec 15:
Exact Audio Copy V1.0 beta 3 from 29. August 2011

EAC extraction logfile from 28. November 2011, 12:32

The Who / Quadrophenia CD2

Used drive  : HL-DT-STDVDRAM GSA-H60N   Adapter: 2  ID: 0

Read mode               : Secure
Utilize accurate stream : Yes
Defeat audio cache      : Yes
Make use of C2 pointers : No

Read offset correction                      : 667
Overread into Lead-In and Lead-Out          : No
Fill up missing offset samples with silence : Yes
Delete leading and trailing silent blocks   : No
Null samples used in CRC calculations       : Yes
Used interface                              : Native Win32 interface for Win NT & 2000

Used output format : Internal WAV Routines
Sample format      : 44.100 Hz; 16 Bit; Stereo


TOC of the extracted CD

     Track |   Start  |  Length  | Start sector | End sector 
    ---------------------------------------------------------
        1  |  0:00.00 |  5:00.61 |         0    |    22560   
        2  |  5:00.61 |  5:01.36 |     22561    |    45171   
        3  | 10:02.22 |  5:26.56 |     45172    |    69677   
        4  | 15:29.03 |  4:58.08 |     69678    |    92035   
        5  | 20:27.11 |  8:35.72 |     92036    |   130732   
        6  | 29:03.08 |  6:37.33 |    130733    |   160540   
        7  | 35:40.41 |  5:49.45 |    160541    |   186760   


Range status and errors

Selected range

     Filename C:\Documents and Settings\Admin\2011 Quadrophenia (4SHM-CD + DVD-A + 7'' Single Box Set Universal Music Japan 2011)\CD2\The Who - Quadrophenia CD2.wav

     Peak level 98.8 %
     Extraction speed 5.6 X
     Range quality 100.0 %
     Test CRC 3076D64A
     Copy CRC 3076D64A
     Copy OK

No errors occurred

 
AccurateRip summary
 
Track  1  accurately ripped (confidence 1)  [A57DB453]  (AR v2)
Track  2  accurately ripped (confidence 1)  [B4D44FBD]  (AR v2)
Track  3  accurately ripped (confidence 1)  [939DE86E]  (AR v2)
Track  4  accurately ripped (confidence 1)  [ED956573]  (AR v2)
Track  5  accurately ripped (confidence 1)  [3DB2621D]  (AR v2)
Track  6  accurately ripped (confidence 1)  [AD7ED75B]  (AR v2)
Track  7  accurately ripped (confidence 1)  [3F5DE131]  (AR v2)
 
All tracks accurately ripped

End of status report

==== Log checksum 9A1C50ADFB1EE9BECCE4A916CE394EEF63702A3696CEFA95AEC2D2EA12A3F41A ====



Create a new paste based on this one


Comments: