[ create a new paste ] login | about

Link: http://codepad.org/K7uX6d7u    [ raw code | fork ]

Plain Text, pasted on Apr 18:
Exact Audio Copy V1.3 from 2. September 2016

EAC extraction logfile from 31. March 2019, 10:37

Alphaville / Forever Young CD1 Album Remastered

Used drive  : PLEXTOR BD-R  PX-B950SA   Adapter: 1  ID: 1

Read mode               : Secure
Utilize accurate stream : Yes
Defeat audio cache      : Yes
Make use of C2 pointers : No

Read offset correction                      : 6
Overread into Lead-In and Lead-Out          : No
Fill up missing offset samples with silence : Yes
Delete leading and trailing silent blocks   : No
Null samples used in CRC calculations       : Yes
Used interface                              : Native Win32 interface for Win NT & 2000

Used output format : Internal WAV Routines
Sample format      : 44.100 Hz; 16 Bit; Stereo


TOC of the extracted CD

     Track |   Start  |  Length  | Start sector | End sector 
    ---------------------------------------------------------
        1  |  0:00.00 |  4:17.03 |         0    |    19277   
        2  |  4:17.03 |  4:46.14 |     19278    |    40741   
        3  |  9:03.17 |  4:44.47 |     40742    |    62088   
        4  | 13:47.64 |  4:13.13 |     62089    |    81076   
        5  | 18:01.02 |  3:56.61 |     81077    |    98837   
        6  | 21:57.63 |  3:46.00 |     98838    |   115787   
        7  | 25:43.63 |  4:32.00 |    115788    |   136187   
        8  | 30:15.63 |  4:46.13 |    136188    |   157650   
        9  | 35:02.01 |  3:32.58 |    157651    |   173608   
       10  | 38:34.59 |  4:56.29 |    173609    |   195837   


Range status and errors

Selected range

     Filename C:\Alphaville\1984 Forever Young (6-Disc Box Set Rhino Records 2019)\CD1 Original Album Remastered\Alphaville - Forever Young CD1 Album Remastered.wav

     Peak level 98.7 %
     Extraction speed 6.5 X
     Range quality 99.9 %
     Test CRC D2BD552F
     Copy CRC D2BD552F
     Copy OK

No errors occurred

 
AccurateRip summary
 
Track  1  not present in database
Track  2  not present in database
Track  3  not present in database
Track  4  not present in database
Track  5  not present in database
Track  6  not present in database
Track  7  not present in database
Track  8  not present in database
Track  9  not present in database
Track 10  not present in database
 
None of the tracks are present in the AccurateRip database

End of status report

---- CUETools DB Plugin V2.1.6

[CTDB TOCID: aIQcUED01Rjf8mrwAq0U.TNBpMk-] found
Submit result: already submitted
Track | CTDB Status
  1   | (21/38) Accurately ripped
  2   | (21/38) Accurately ripped
  3   | (21/38) Accurately ripped
  4   | (21/38) Accurately ripped
  5   | (21/38) Accurately ripped
  6   | (21/38) Accurately ripped
  7   | (21/38) Accurately ripped
  8   | (21/38) Accurately ripped
  9   | (21/38) Accurately ripped
 10   | (21/38) Accurately ripped


==== Log checksum 3AB49076A918E1313F9B260FD37DCB197721FE47260C55F0873C2F574A007A23 ====



Create a new paste based on this one


Comments: