[ create a new paste ] login | about

Link: http://codepad.org/KAIhfnbX    [ raw code | fork ]

Plain Text, pasted on May 21:
foobar2000 1.3.15 / Dynamic Range Meter 1.1.1
log date: 2017-05-20 18:02:11

--------------------------------------------------------------------------------
Analyzed: Grand Funk / all the girls in the world beware!!!
--------------------------------------------------------------------------------

DR         Peak         RMS     Duration Track
--------------------------------------------------------------------------------
DR11      -6.56 dB   -19.77 dB      3:51 01-Responsibility
DR11      -7.34 dB   -20.67 dB      4:21 02-Runnin'
DR10      -7.43 dB   -20.70 dB      5:00 03-Life
DR11      -7.54 dB   -20.48 dB      2:31 04-Look At Granny Run Run
DR11      -6.55 dB   -22.16 dB      3:35 05-Memories
DR11      -6.68 dB   -20.45 dB      3:29 06-All The Girls In The World Beware
DR10      -8.02 dB   -19.90 dB      2:54 07-Wild
DR11      -6.83 dB   -21.16 dB      7:33 08-Good & Evil
DR11      -7.24 dB   -20.39 dB      2:55 09-Bad Time
DR12      -7.49 dB   -22.01 dB      3:24 10-Some Kind Of Wonderful
--------------------------------------------------------------------------------

Number of tracks:  10
Official DR value: DR11

Samplerate:        2822400 Hz / PCM Samplerate: 88200 Hz
Channels:          2
Bits per sample:   1
Bitrate:           5645 kbps
Codec:             DSD64
================================================================================




Create a new paste based on this one


Comments: