[ create a new paste ] login | about

Link: http://codepad.org/KCgIqeSj    [ raw code | fork ]

Plain Text, pasted on Dec 28:
Exact Audio Copy V1.1 from 23. June 2015

EAC extraction logfile from 4. December 2015, 17:11

Various Artists / Ultimate Divas: 4CDs of the Greatest Female Voices (Disc 2)

Used drive  : ASUS    BW-12D1S-U   Adapter: 1  ID: 1

Read mode               : Secure
Utilize accurate stream : Yes
Defeat audio cache      : Yes
Make use of C2 pointers : No

Read offset correction                      : 667
Overread into Lead-In and Lead-Out          : No
Fill up missing offset samples with silence : Yes
Delete leading and trailing silent blocks   : No
Null samples used in CRC calculations       : Yes
Used interface                              : Native Win32 interface for Win NT & 2000
Gap handling                                : Appended to previous track

Used output format              : User Defined Encoder
Selected bitrate                : 1024 kBit/s
Quality                         : High
Add ID3 tag                     : No
Command line compressor         : C:\Program Files (x86)\Kodeki za Glasbo\flac v1.3.1\win64\flac.exe
Additional command line options : -8 -V -T "ARTIST=%artist%" -T "TITLE=%title%" -T "ALBUM=%albumtitle%" -T "DATE=%year%" -T "TRACKNUMBER=%tracknr%" -T "TOTALTRACKS=%numtracks%" -T "GENRE=%genre%" -T "ALBUMARTIST=%albumartist%" -T "ALBUM ARTIST=%albumartist%" -T "COMMENT=EAC Secure Mode, Test & Copy, AccurateRip, FLAC -8" %source%


TOC of the extracted CD

     Track |   Start  |  Length  | Start sector | End sector 
    ---------------------------------------------------------
        1  |  0:00.00 |  4:28.04 |         0    |    20103   
        2  |  4:28.04 |  3:33.38 |     20104    |    36116   
        3  |  8:01.42 |  3:59.36 |     36117    |    54077   
        4  | 12:01.03 |  4:10.73 |     54078    |    72900   
        5  | 16:12.01 |  3:30.67 |     72901    |    88717   
        6  | 19:42.68 |  3:38.13 |     88718    |   105080   
        7  | 23:21.06 |  3:45.59 |    105081    |   122014   
        8  | 27:06.65 |  4:16.42 |    122015    |   141256   
        9  | 31:23.32 |  3:53.06 |    141257    |   158737   
       10  | 35:16.38 |  3:53.37 |    158738    |   176249   
       11  | 39:10.00 |  4:10.62 |    176250    |   195061   
       12  | 43:20.62 |  3:53.38 |    195062    |   212574   
       13  | 47:14.25 |  4:09.41 |    212575    |   231290   
       14  | 51:23.66 |  4:31.50 |    231291    |   251665   
       15  | 55:55.41 |  3:54.64 |    251666    |   269279   
       16  | 59:50.30 |  4:20.48 |    269280    |   288827   
       17  | 64:11.03 |  3:44.44 |    288828    |   305671   
       18  | 67:55.47 |  3:38.66 |    305672    |   322087   


Track  1

     Filename K:\3. my rip in preparation\3 - in treatment\1\CD2\01 - Bonnie Tyler - Total Eclipse of the Heart.wav

     Pre-gap length  0:00:02.00

     Peak level 98.7 %
     Extraction speed 5.0 X
     Track quality 100.0 %
     Test CRC E2DBB142
     Copy CRC E2DBB142
     Accurately ripped (confidence 1)  [F2CFB430]  (AR v2)
     Copy OK

Track  2

     Filename K:\3. my rip in preparation\3 - in treatment\1\CD2\02 - The Weather Girls - It's Raining Men.wav

     Pre-gap length  0:00:01.77

     Peak level 98.8 %
     Extraction speed 5.3 X
     Track quality 100.0 %
     Test CRC 2C461B3D
     Copy CRC 2C461B3D
     Accurately ripped (confidence 1)  [E5E9D0CF]  (AR v2)
     Copy OK

Track  3

     Filename K:\3. my rip in preparation\3 - in treatment\1\CD2\03 - Amerie - 1 Thing.wav

     Pre-gap length  0:00:01.77

     Peak level 94.3 %
     Extraction speed 5.8 X
     Track quality 100.0 %
     Test CRC 89668448
     Copy CRC 89668448
     Accurately ripped (confidence 1)  [2EEF7887]  (AR v2)
     Copy OK

Track  4

     Filename K:\3. my rip in preparation\3 - in treatment\1\CD2\04 - Jennifer Hudson - Spootlight.wav

     Pre-gap length  0:00:01.77

     Peak level 88.7 %
     Extraction speed 5.5 X
     Track quality 99.9 %
     Test CRC EC4F5DA0
     Copy CRC EC4F5DA0
     Accurately ripped (confidence 1)  [99D8E2C2]  (AR v2)
     Copy OK

Track  5

     Filename K:\3. my rip in preparation\3 - in treatment\1\CD2\05 - Melba Moore - This Is It.wav

     Pre-gap length  0:00:01.77

     Peak level 98.6 %
     Extraction speed 6.4 X
     Track quality 100.0 %
     Test CRC ED8EEBF9
     Copy CRC ED8EEBF9
     Accurately ripped (confidence 1)  [43AD78C2]  (AR v2)
     Copy OK

Track  6

     Filename K:\3. my rip in preparation\3 - in treatment\1\CD2\06 - Evelyn 'Champagne' King - Love Come Down.wav

     Pre-gap length  0:00:01.77

     Peak level 98.8 %
     Extraction speed 6.7 X
     Track quality 100.0 %
     Test CRC 4D884EDA
     Copy CRC 4D884EDA
     Accurately ripped (confidence 1)  [0E776168]  (AR v2)
     Copy OK

Track  7

     Filename K:\3. my rip in preparation\3 - in treatment\1\CD2\07 - Cheryl Lynn - Got to Be Real.wav

     Pre-gap length  0:00:01.77

     Peak level 98.5 %
     Extraction speed 7.0 X
     Track quality 100.0 %
     Test CRC 3F5D05C8
     Copy CRC 3F5D05C8
     Accurately ripped (confidence 1)  [40E38B3E]  (AR v2)
     Copy OK

Track  8

     Filename K:\3. my rip in preparation\3 - in treatment\1\CD2\08 - Aretha Franklin - Jump to It.wav

     Pre-gap length  0:00:01.77

     Peak level 99.7 %
     Extraction speed 7.4 X
     Track quality 100.0 %
     Test CRC 3AF8FA69
     Copy CRC 3AF8FA69
     Accurately ripped (confidence 1)  [B79A4051]  (AR v2)
     Copy OK

Track  9

     Filename K:\3. my rip in preparation\3 - in treatment\1\CD2\09 - The Pointer Sisters - Slow Hand.wav

     Pre-gap length  0:00:01.77

     Peak level 98.8 %
     Extraction speed 7.5 X
     Track quality 100.0 %
     Test CRC 22DD1087
     Copy CRC 22DD1087
     Accurately ripped (confidence 1)  [D0DD4802]  (AR v2)
     Copy OK

Track 10

     Filename K:\3. my rip in preparation\3 - in treatment\1\CD2\10 - Gladys Knight & The Pips - Midnight Train to Georgia.wav

     Pre-gap length  0:00:01.77

     Peak level 88.9 %
     Extraction speed 7.7 X
     Track quality 100.0 %
     Test CRC B32B5307
     Copy CRC B32B5307
     Accurately ripped (confidence 1)  [A0D0CE3C]  (AR v2)
     Copy OK

Track 11

     Filename K:\3. my rip in preparation\3 - in treatment\1\CD2\11 - Kelly Rowland - Stole.wav

     Pre-gap length  0:00:01.77

     Peak level 88.1 %
     Extraction speed 7.8 X
     Track quality 100.0 %
     Test CRC 5A73BE10
     Copy CRC 5A73BE10
     Accurately ripped (confidence 1)  [B169408C]  (AR v2)
     Copy OK

Track 12

     Filename K:\3. my rip in preparation\3 - in treatment\1\CD2\12 - Delta Goodrem - Born to Try.wav

     Pre-gap length  0:00:01.77

     Peak level 98.8 %
     Extraction speed 8.1 X
     Track quality 100.0 %
     Test CRC F735CAB0
     Copy CRC F735CAB0
     Accurately ripped (confidence 1)  [59FEC9ED]  (AR v2)
     Copy OK

Track 13

     Filename K:\3. my rip in preparation\3 - in treatment\1\CD2\13 - Gloria Estefan - Don't Wanna Lose You.wav

     Pre-gap length  0:00:01.77

     Peak level 98.8 %
     Extraction speed 8.4 X
     Track quality 100.0 %
     Test CRC 22C5D46A
     Copy CRC 22C5D46A
     Accurately ripped (confidence 1)  [B79E064D]  (AR v2)
     Copy OK

Track 14

     Filename K:\3. my rip in preparation\3 - in treatment\1\CD2\14 - Angie Stone - Wish I Didn't Miss You.wav

     Pre-gap length  0:00:01.77

     Peak level 82.1 %
     Extraction speed 8.8 X
     Track quality 100.0 %
     Test CRC 14DB6147
     Copy CRC 14DB6147
     Accurately ripped (confidence 1)  [5F202466]  (AR v2)
     Copy OK

Track 15

     Filename K:\3. my rip in preparation\3 - in treatment\1\CD2\15 - Heather Small - Proud.wav

     Pre-gap length  0:00:01.77

     Peak level 98.5 %
     Extraction speed 8.8 X
     Track quality 100.0 %
     Test CRC 6B965CE5
     Copy CRC 6B965CE5
     Accurately ripped (confidence 1)  [E16D9EFF]  (AR v2)
     Copy OK

Track 16

     Filename K:\3. my rip in preparation\3 - in treatment\1\CD2\16 - Naomi Campbell - Love & Tears.wav

     Pre-gap length  0:00:01.77

     Peak level 98.5 %
     Extraction speed 9.0 X
     Track quality 100.0 %
     Test CRC 01D92E26
     Copy CRC 01D92E26
     Accurately ripped (confidence 1)  [67965EB1]  (AR v2)
     Copy OK

Track 17

     Filename K:\3. my rip in preparation\3 - in treatment\1\CD2\17 - Avril Lavigne - I'm With You.wav

     Pre-gap length  0:00:01.77

     Peak level 98.8 %
     Extraction speed 9.0 X
     Track quality 100.0 %
     Test CRC 9E51780D
     Copy CRC 9E51780D
     Accurately ripped (confidence 1)  [BF6B2A4D]  (AR v2)
     Copy OK

Track 18

     Filename K:\3. my rip in preparation\3 - in treatment\1\CD2\18 - Alexandra Burke - Hallelujah.wav

     Pre-gap length  0:00:01.77

     Peak level 92.4 %
     Extraction speed 9.3 X
     Track quality 100.0 %
     Test CRC 251E6877
     Copy CRC 251E6877
     Accurately ripped (confidence 1)  [480D238C]  (AR v2)
     Copy OK


All tracks accurately ripped

No errors occurred

End of status report

---- CUETools DB Plugin V2.1.6

[CTDB TOCID: uz6NsJ7LdGqLyMYUUaDbZd32iUU-] found
Submit result: uz6NsJ7LdGqLyMYUUaDbZd32iUU- has been confirmed
Track | CTDB Status
  1   | (1/1) Accurately ripped
  2   | (1/1) Accurately ripped
  3   | (1/1) Accurately ripped
  4   | (1/1) Accurately ripped
  5   | (1/1) Accurately ripped
  6   | (1/1) Accurately ripped
  7   | (1/1) Accurately ripped
  8   | (1/1) Accurately ripped
  9   | (1/1) Accurately ripped
 10   | (1/1) Accurately ripped
 11   | (1/1) Accurately ripped
 12   | (1/1) Accurately ripped
 13   | (1/1) Accurately ripped
 14   | (1/1) Accurately ripped
 15   | (1/1) Accurately ripped
 16   | (1/1) Accurately ripped
 17   | (1/1) Accurately ripped
 18   | (1/1) Accurately ripped


==== Log checksum F5F502333DAE13FC9EB56D4BD5D6ED0B15D17D4D750F5617E94888720B13C3C1 ====



Create a new paste based on this one


Comments: