[ create a new paste ] login | about

Link: http://codepad.org/KDJO16o2    [ raw code | fork ]

Plain Text, pasted on Mar 14:
Exact Audio Copy V1.1 from 23. June 2015

EAC extraction logfile from 26. February 2016, 8:50

Grateful Dead / Fare Thee Well 7-5-15 (CD4)

Used drive  : PIONEER BD-RW   BDR-XD04   Adapter: 1  ID: 0

Read mode               : Secure
Utilize accurate stream : Yes
Defeat audio cache      : Yes
Make use of C2 pointers : No

Read offset correction                      : 667
Overread into Lead-In and Lead-Out          : No
Fill up missing offset samples with silence : Yes
Delete leading and trailing silent blocks   : No
Null samples used in CRC calculations       : Yes
Used interface                              : Native Win32 interface for Win NT & 2000

Used output format              : User Defined Encoder
Selected bitrate                : 768 kBit/s
Quality                         : High
Add ID3 tag                     : No
Command line compressor         : C:\Program Files (x86)\Exact Audio Copy\Wavpack\wavpack.exe
Additional command line options : -hm -w "Year=%year%" -w "Genre=%genre%" %source% %dest%


TOC of the extracted CD

     Track |   Start  |  Length  | Start sector | End sector 
    ---------------------------------------------------------
        1  |  0:00.00 | 12:22.38 |         0    |    55687   
        2  | 12:22.38 | 25:05.44 |     55688    |   168606   
        3  | 37:28.07 | 14:28.25 |    168607    |   233731   
        4  | 51:56.32 |  9:37.03 |    233732    |   277009   
        5  | 61:33.35 | 10:43.46 |    277010    |   325280   


Range status and errors

Selected range

     Filename D:\_NL+_\_CD\Grateful Dead - Fare Thee Well 7-5-15 (CD4).wav

     Peak level 100.0 %
     Extraction speed 1.7 X
     Range quality 100.0 %
     Test CRC 53D7219D
     Copy CRC 53D7219D
     Copy OK

No errors occurred

 
AccurateRip summary
 
Track  1  not present in database
Track  2  not present in database
Track  3  not present in database
Track  4  not present in database
Track  5  not present in database
 
None of the tracks are present in the AccurateRip database

End of status report

---- CUETools DB Plugin V2.1.6

[CTDB TOCID: Y0b8.nyaNJvP3SbOIwgB9f1QGcU-] found
Submit result: Y0b8.nyaNJvP3SbOIwgB9f1QGcU- has been confirmed
Track | CTDB Status
  1   | (20/20) Accurately ripped
  2   | (20/20) Accurately ripped
  3   | (20/20) Accurately ripped
  4   | (20/20) Accurately ripped
  5   | (20/20) Accurately ripped


==== Log checksum 835C743467F13AA8E34E823796B3AE2E4C4C6C42D14434EFD2CFA85956F1A5F0 ====



Create a new paste based on this one


Comments: