[ create a new paste ] login | about

Link: http://codepad.org/KF6AzUnQ    [ raw code | fork ]

Plain Text, pasted on Aug 25:
Disc 1
->
foobar2000 1.2.2 / Dynamic Range Meter 1.1.1
log date: 2013-05-29 12:27:25

--------------------------------------------------------------------------------
Analyzed: Kraftwerk / Minimum-Maximum (International Version - Hybrid SACD - Disc 1)
--------------------------------------------------------------------------------

DR         Peak         RMS     Duration Track
--------------------------------------------------------------------------------
DR9       -0.01 dB   -11.97 dB      7:55 01-The Man Machine
DR9       -0.43 dB   -10.62 dB      4:46 02-Planet Of Visions
DR9       -0.67 dB   -10.56 dB      4:22 03-Tour De France Etape One
DR10      -0.36 dB   -11.85 dB      1:29 04-Chrono
DR8       -0.62 dB   -10.30 dB      4:49 05-Tour De France Etape Two
DR9       -0.43 dB   -10.10 dB      6:42 06-Vitamin
DR9       -0.56 dB   -11.33 dB      6:18 07-Tour De France
DR8       -0.61 dB   -10.10 dB      8:52 08-Autobahn
DR9       -0.61 dB   -10.53 dB      3:42 09-The Model
DR9       -0.67 dB   -11.21 dB      5:59 10-Neon Lights
--------------------------------------------------------------------------------

Number of tracks:  10
Official DR value: DR9

Samplerate:        88200 Hz
Channels:          2
Bits per sample:   24
Bitrate:           2651 kbps
Codec:             FLAC
================================================================================
->
*********************************************************************************************************************************************************
*********************************************************************************************************************************************************
->
Disc 2
->
foobar2000 1.2.2 / Dynamic Range Meter 1.1.1
log date: 2013-05-29 12:32:23

--------------------------------------------------------------------------------
Analyzed: Kraftwerk / Minimum-Maximum (International Version - Hybrid SACD - Disc 2)
--------------------------------------------------------------------------------

DR         Peak         RMS     Duration Track
--------------------------------------------------------------------------------
DR10      -0.42 dB   -11.96 dB      7:42 01-Radioactivity
DR11      -0.25 dB   -12.84 dB      5:02 02-Trans Europe Express
DR11      -0.29 dB   -13.27 dB      4:29 03-Metal On Metal
DR10      -0.31 dB   -11.66 dB      4:28 04-Numbers
DR9       -0.41 dB   -10.17 dB      2:56 05-Computer World
DR9       -0.22 dB   -10.68 dB      5:55 06-Home Computer
DR9       -0.64 dB   -11.68 dB      2:57 07-Pocket Calculator
DR9       -0.57 dB   -10.93 dB      3:16 08-Dentaku
DR10      -0.01 dB   -11.27 dB      7:24 09-The Robots
DR10      -0.27 dB   -11.47 dB      4:41 10-Elektro Kardiogramm
DR9       -0.31 dB   -10.56 dB      7:14 11-Aero Dynamik
DR9       -0.28 dB   -11.38 dB      9:52 12-Music Non Stop
--------------------------------------------------------------------------------

Number of tracks:  12
Official DR value: DR10

Samplerate:        88200 Hz
Channels:          2
Bits per sample:   24
Bitrate:           2831 kbps
Codec:             FLAC
================================================================================




Create a new paste based on this one


Comments: