[ create a new paste ] login | about

Link: http://codepad.org/KFKlE4Ms    [ raw code | fork ]

Plain Text, pasted on Feb 15:
foobar2000 1.1.7 / Dynamic Range Meter 1.1.0
log date: 2013-03-03 00:43:59

--------------------------------------------------------------------------------
Analyzed: Rush / Counterparts [AFZ 152]
--------------------------------------------------------------------------------

DR         Peak         RMS     Duration Track
--------------------------------------------------------------------------------
DR12       0.00 dB   -13.90 dB      6:05 01-Animate
DR10      -1.67 dB   -13.36 dB      4:48 02-Stick It Out
DR12      -0.49 dB   -13.93 dB      4:49 03-Cut To The Chase
DR12      -0.20 dB   -15.19 dB      5:05 04-Nobody's Here
DR13      -0.27 dB   -14.37 dB      4:40 05-Between Sun & Moon
DR12       0.00 dB   -13.48 dB      5:47 06-Alien Shore
DR12      -0.29 dB   -14.54 dB      5:03 07-The Speed Of Love
DR12      -0.60 dB   -14.09 dB      4:53 08-Double Agent
DR12      -0.54 dB   -15.14 dB      4:08 09-Leave That Thing Alone
DR13       0.00 dB   -14.83 dB      4:27 10-Cold Fire
DR14       0.00 dB   -15.41 dB      5:18 11-Everyday Glory
--------------------------------------------------------------------------------

Number of tracks:  11
Official DR value: DR12

Samplerate:        44100 Hz
Channels:          2
Bits per sample:   16
Bitrate:           919 kbps
Codec:             FLAC
================================================================================




Create a new paste based on this one


Comments: